<?xml version="1.0" standalone="no"?>
<!DOCTYPE svg PUBLIC "-//W3C//DTD SVG 1.1//EN" "http://www.w3.org/Graphics/SVG/1.1/DTD/svg11.dtd" >
<svg xmlns="http://www.w3.org/2000/svg">
<metadata>Generated by IcoMoon</metadata>
<defs>
<font id="icon24" horiz-adv-x="1024">
<font-face units-per-em="1024" ascent="960" descent="-64" />
<missing-glyph horiz-adv-x="1024" />
<glyph unicode="&#x20;" horiz-adv-x="512" d="" />
<glyph unicode="&#xe900;" glyph-name="arrow-right" d="M621.248 82.752l320 320c24.992 24.992 24.992 65.52 0 90.512l-320 320c-24.992 24.992-65.52 24.992-90.512 0s-24.992-65.52 0-90.512l210.752-210.752h-613.488c-35.344 0-64-28.656-64-64s28.656-64 64-64h613.488l-210.752-210.752c-12.496-12.496-18.752-28.88-18.752-45.248s6.24-32.752 18.752-45.248c24.992-24.992 65.52-24.992 90.512 0z" />
<glyph unicode="&#xe901;" glyph-name="check" d="M871.696 793.068l-526.088-526.088-193.304 193.304c-9.372 9.372-24.568 9.372-33.942 0l-56.568-56.568c-9.372-9.372-9.372-24.568 0-33.942l266.842-266.842c9.372-9.372 24.568-9.372 33.942 0l599.626 599.626c9.372 9.372 9.372 24.568 0 33.942l-56.568 56.568c-9.372 9.372-24.568 9.372-33.94 0z" />
<glyph unicode="&#xe902;" glyph-name="chevron-down" d="M951 634.8l-14.2 14.2c-9.4 9.4-24.6 9.4-34 0l-390.8-391-391 391c-9.4 9.4-24.6 9.4-34 0l-14.2-14.2c-9.4-9.4-9.4-24.6 0-34l422-422.2c9.4-9.4 24.6-9.4 34 0l422 422.2c9.6 9.4 9.6 24.6 0.2 34z" />
<glyph unicode="&#xe903;" glyph-name="chevron-left" d="M732.95 8.93l14.142 14.14c9.372 9.372 9.372 24.568 0 33.942l-390.986 390.988 390.986 390.988c9.372 9.372 9.372 24.568 0 33.942l-14.142 14.14c-9.372 9.372-24.568 9.372-33.94 0l-422.102-422.1c-9.372-9.372-9.372-24.568 0-33.942l422.102-422.1c9.372-9.372 24.568-9.372 33.94 0.002z" />
<glyph unicode="&#xe904;" glyph-name="chevron-right" d="M291.050 887.070l-14.142-14.14c-9.372-9.372-9.372-24.568 0-33.942l390.986-390.988-390.986-390.988c-9.372-9.372-9.372-24.568 0-33.942l14.142-14.14c9.372-9.372 24.568-9.372 33.94 0l422.102 422.1c9.372 9.372 9.372 24.568 0 33.942l-422.102 422.098c-9.372 9.374-24.568 9.374-33.94 0z" />
<glyph unicode="&#xe905;" glyph-name="close_icon" d="M1024 844.6l-115.4 115.4-397.057-397.057-396.144 396.372-115.4-115.4 396.144-396.372-395.46-395.232 115.4-115.4 395.46 395.232 396.144-396.144 115.4 115.4-396.144 396.144z" />
<glyph unicode="&#xe906;" glyph-name="facebook" d="M767.429 953.143v-150.857h-89.714q-49.143 0-66.286-20.571t-17.143-61.714v-108h167.429l-22.286-169.143h-145.143v-433.714h-174.857v433.714h-145.714v169.143h145.714v124.571q0 106.286 59.429 164.857t158.286 58.571q84 0 130.286-6.857z" />
<glyph unicode="&#xe907;" glyph-name="instagram" d="M658.286 448q0 60.571-42.857 103.429t-103.429 42.857-103.429-42.857-42.857-103.429 42.857-103.429 103.429-42.857 103.429 42.857 42.857 103.429zM737.143 448q0-93.714-65.714-159.429t-159.429-65.714-159.429 65.714-65.714 159.429 65.714 159.429 159.429 65.714 159.429-65.714 65.714-159.429zM798.857 682.286q0-21.714-15.429-37.143t-37.143-15.429-37.143 15.429-15.429 37.143 15.429 37.143 37.143 15.429 37.143-15.429 15.429-37.143zM512 808q-4 0-43.714 0.286t-60.286 0-55.143-1.714-58.857-5.714-40.857-10.571q-28.571-11.429-50.286-33.143t-33.143-50.286q-6.286-16.571-10.571-40.857t-5.714-58.857-1.714-55.143 0-60.286 0.286-43.714-0.286-43.714 0-60.286 1.714-55.143 5.714-58.857 10.571-40.857q11.429-28.571 33.143-50.286t50.286-33.143q16.571-6.286 40.857-10.571t58.857-5.714 55.143-1.714 60.286 0 43.714 0.286 43.714-0.286 60.286 0 55.143 1.714 58.857 5.714 40.857 10.571q28.571 11.429 50.286 33.143t33.143 50.286q6.286 16.571 10.571 40.857t5.714 58.857 1.714 55.143 0 60.286-0.286 43.714 0.286 43.714 0 60.286-1.714 55.143-5.714 58.857-10.571 40.857q-11.429 28.571-33.143 50.286t-50.286 33.143q-16.571 6.286-40.857 10.571t-58.857 5.714-55.143 1.714-60.286 0-43.714-0.286zM950.857 448q0-130.857-2.857-181.143-5.714-118.857-70.857-184t-184-70.857q-50.286-2.857-181.143-2.857t-181.143 2.857q-118.857 5.714-184 70.857t-70.857 184q-2.857 50.286-2.857 181.143t2.857 181.143q5.714 118.857 70.857 184t184 70.857q50.286 2.857 181.143 2.857t181.143-2.857q118.857-5.714 184-70.857t70.857-184q2.857-50.286 2.857-181.143z" />
<glyph unicode="&#xe908;" glyph-name="preferiti-sel" d="M796.444-64l-284.444 266.012-284.444-266.012v1024l568.889-1.195v-1022.805zM512 279.893l227.556-212.764v834.901l-455.111 0.967v-835.868l227.556 212.764zM264.875 920.86v-890.652l247.125 213.333 241.778-229.319 7.111 906.638z" />
<glyph unicode="&#xe909;" glyph-name="preferiti" d="M796.444-64l-284.444 266.012-284.444-266.012v1024l568.889-1.195v-1022.805zM512 279.893l227.556-212.764v834.901l-455.111 0.967v-835.868l227.556 212.764z" />
<glyph unicode="&#xe90a;" glyph-name="truck" d="M1024 384l-128 256h-192v128c0 35.2-28.8 64-64 64h-576c-35.2 0-64-28.8-64-64v-512l64-64h81.168c-10.896-18.832-17.168-40.672-17.168-64 0-70.688 57.312-128 128-128s128 57.312 128 128c0 23.328-6.272 45.168-17.168 64h354.336c-10.896-18.832-17.168-40.672-17.168-64 0-70.688 57.312-128 128-128s128 57.312 128 128c0 23.328-6.272 45.168-17.168 64h81.168v192zM704 384v192h132.672l96-192h-228.672z" />
<glyph unicode="&#xe90b;" glyph-name="twitter" d="M962.286 726.857q-38.286-56-92.571-95.429 0.571-8 0.571-24 0-74.286-21.714-148.286t-66-142-105.429-120.286-147.429-83.429-184.571-31.143q-154.857 0-283.429 82.857 20-2.286 44.571-2.286 128.571 0 229.143 78.857-60 1.143-107.429 36.857t-65.143 91.143q18.857-2.857 34.857-2.857 24.571 0 48.571 6.286-64 13.143-106 63.714t-42 117.429v2.286q38.857-21.714 83.429-23.429-37.714 25.143-60 65.714t-22.286 88q0 50.286 25.143 93.143 69.143-85.143 168.286-136.286t212.286-56.857q-4.571 21.714-4.571 42.286 0 76.571 54 130.571t130.571 54q80 0 134.857-58.286 62.286 12 117.143 44.571-21.143-65.714-81.143-101.714 53.143 5.714 106.286 28.571z" />
<glyph unicode="&#xe90c;" d="M512-10.583l-122.53-38.539-90.585 91.067-126.404 22.818-37.888 122.732-101.322 78.947 23.489 126.282-53.027 116.991 79.484 100.901 7.415 128.233 117.271 52.405 66.159 110.099 128.192-8.096 109.746 66.742 109.746-66.742 128.192 8.096 66.159-110.099 117.271-52.405 7.415-128.233 79.484-100.901-53.027-116.991 23.489-126.282-101.322-78.947-37.888-122.732-126.404-22.818-90.585-91.067z" />
<glyph unicode="&#xe90d;" glyph-name="download" horiz-adv-x="1317" d="M694.821 330.356l184.582 184.582c14.246 14.246 37.344 14.246 51.591 0s14.246-37.344 0-51.591l-246.857-246.857c-14.246-14.246-37.344-14.246-51.591 0l-246.857 246.857c-14.246 14.246-14.246 37.344 0 51.591s37.344 14.246 51.591 0l184.582-184.582v570.215c0 20.147 16.333 36.48 36.48 36.48s36.48-16.333 36.48-36.48v-570.215zM1239.003 242.286c0 20.147 16.333 36.48 36.48 36.48s36.48-16.333 36.48-36.48v-82.286c0-111.038-90.014-201.051-201.051-201.051h-905.143c-111.038 0-201.051 90.014-201.051 201.051v82.286c0 20.147 16.333 36.48 36.48 36.48s36.48-16.333 36.48-36.48v-82.286c0-70.743 57.348-128.091 128.091-128.091h905.143c70.743 0 128.091 57.348 128.091 128.091v82.286z" />
<glyph unicode="&#xe90e;" glyph-name="info" d="M352.512 0.896l2.816 38.336 68.288 15.68c7.232 4.16 12.032 10.88 14.592 20.224 2.56 9.472 3.84 30.144 3.84 61.824v280.512c0 75.328-3.968 117.504-11.648 126.784l-78.4 13.12 2.752 32c65.408 26.432 127.808 43.584 187.008 51.392l40.832-3.712c-3.52-70.208-5.568-126.912-6.016-170.048v-330.112c0-48.96 3.264-76.288 9.792-82.176l82.816-15.68c1.792-10.56 2.816-23.296 2.816-38.336l-319.488 0.192zM416 799.232c0 28.992 9.92 52.288 29.76 70.080 19.84 17.856 41.856 26.688 65.856 26.688 24.896 0 47.040-8.768 66.816-26.24 19.712-17.536 29.568-40.832 29.568-70.144s-9.856-52.48-29.568-69.76c-19.776-17.28-41.984-25.856-66.816-25.856-24 0-46.016 8.832-65.856 26.688-19.84 17.792-29.76 40.64-29.76 68.608v0-0.064z" />
<glyph unicode="&#xe90f;" glyph-name="file" horiz-adv-x="768" d="M739.8 764.2l-167.8 167.8c-18 18-42.4 28.2-67.8 28.2h-408.2c-53-0.2-96-43.2-96-96.2v-832c0-53 43-96 96-96h576c53 0 96 43 96 96v664.2c0 25.4-10.2 50-28.2 68zM694.6 718.8c4.2-4.2 7-9.2 8.4-14.8h-191v191c5.6-1.4 10.6-4.2 14.8-8.4l167.8-167.8zM672 0h-576c-17.6 0-32 14.4-32 32v832c0 17.6 14.4 32 32 32h352v-208c0-26.6 21.4-48 48-48h208v-608c0-17.6-14.4-32-32-32z" />
<glyph unicode="&#xe910;" d="M475.429 557.392c0-15.875-2.732-30.465-8.172-43.755-5.453-13.304-12.999-24.775-22.637-34.428-9.645-9.652-21.169-17.272-34.58-22.843-13.417-5.571-28.085-8.367-44.012-8.367-15.932 0-30.6 2.796-44.009 8.367-13.422 5.571-25.054 13.19-34.895 22.843-9.854 9.652-17.508 21.124-22.951 34.428-5.451 13.291-8.172 27.88-8.172 43.755 0 15.865 2.722 30.454 8.172 43.758 5.443 13.291 13.097 24.873 22.951 34.747 9.841 9.861 21.473 17.586 34.895 23.165 13.409 5.571 28.077 8.367 44.009 8.367 15.927 0 30.595-2.796 44.012-8.367 13.412-5.579 24.935-13.304 34.58-23.165 9.638-9.874 17.183-21.457 22.637-34.747 5.441-13.304 8.172-27.893 8.172-43.758v0zM585.143 337.349c0-20.015 6.964-37.040 20.902-51.106 13.928-14.066 31.344-21.1 52.241-21.1s38.312 7.033 52.246 21.1c13.928 14.066 20.897 31.092 20.897 51.106 0 20.63-6.969 38.125-20.897 52.514-13.933 14.37-31.348 21.565-52.246 21.565s-38.312-7.195-52.241-21.565c-13.938-14.39-20.902-31.884-20.902-52.514v0zM768 337.964c0-15.875-2.732-30.465-8.175-43.755-5.453-13.304-12.996-24.775-22.634-34.428-9.648-9.652-21.171-17.272-34.58-22.843-13.419-5.571-28.087-8.367-44.012-8.367-15.935 0-30.603 2.796-44.012 8.367-13.419 5.571-25.051 13.19-34.893 22.843-9.854 9.652-17.508 21.124-22.951 34.428-5.451 13.291-8.172 27.88-8.172 43.755 0 15.865 2.722 30.454 8.172 43.758 5.443 13.291 13.097 24.873 22.951 34.747 9.841 9.864 21.473 17.583 34.893 23.165 13.409 5.568 28.077 8.367 44.012 8.367 15.924 0 30.592-2.799 44.012-8.367 13.409-5.581 24.932-13.301 34.58-23.165 9.638-9.874 17.181-21.457 22.634-34.747 5.443-13.304 8.175-27.893 8.175-43.758v0zM292.571 556.776c0-20.014 6.969-37.039 20.897-51.105 13.933-14.066 31.353-21.099 52.25-21.099s38.308 7.033 52.246 21.099c13.928 14.066 20.893 31.091 20.893 51.105 0 20.63-6.964 38.128-20.893 52.513-13.938 14.374-31.348 21.569-52.246 21.569s-38.317-7.195-52.25-21.569c-13.928-14.385-20.897-31.883-20.897-52.513v0zM665.498 667.429l29.359-33.709-371.679-405.148-30.607 34.358 372.927 404.499z" />
<glyph unicode="&#xe911;" glyph-name="arrow-left" d="M402.752 82.752l-320 320c-24.992 24.992-24.992 65.52 0 90.512l320 320c24.992 24.992 65.52 24.992 90.512 0s24.992-65.52 0-90.512l-210.752-210.752h613.488c35.344 0 64-28.656 64-64s-28.656-64-64-64h-613.488l210.752-210.752c12.496-12.496 18.752-28.88 18.752-45.248s-6.24-32.752-18.752-45.248c-24.992-24.992-65.52-24.992-90.512 0z" />
<glyph unicode="&#xe912;" glyph-name="arrow-slim-right" horiz-adv-x="1460" d="M982.299 946.1c-18.534 18.534-50.968 18.534-74.136 0-18.534-18.534-18.534-50.968 0-74.136l370.679-370.679h-1227.873c-27.801-4.633-50.968-23.167-50.968-55.602s23.167-50.968 50.968-50.968h1232.507l-370.679-370.679c-18.534-18.534-18.534-55.602 0-74.136s55.602-18.534 74.136 0l463.348 463.348c18.534 18.534 18.534 50.968 0 74.136l-467.982 458.715z" />
<glyph unicode="&#xe913;" glyph-name="arrow-slim-left" horiz-adv-x="1460" d="M477.701 946.1c18.534 18.534 50.968 18.534 74.136 0 18.534-18.534 18.534-50.968 0-74.136l-370.679-370.679h1227.873c27.801-4.633 50.968-23.167 50.968-55.602s-23.167-50.968-50.968-50.968h-1232.507l370.679-370.679c18.534-18.534 18.534-55.602 0-74.136s-55.602-18.534-74.136 0l-463.348 463.348c-18.534 18.534-18.534 50.968 0 74.136l467.982 458.715z" />
<glyph unicode="&#xe914;" d="M513.519-62.877c273.606 0 495.484 221.845 495.484 495.484s-221.878 495.484-495.484 495.484c-273.672 0-495.484-221.845-495.484-495.484s221.812-495.484 495.484-495.484z" />
<glyph unicode="&#xe915;" glyph-name="newspaper1" horiz-adv-x="1152" d="M1104 832h-928c-26.468 0-48-21.534-48-48v-16h-80c-26.51 0-48-21.49-48-48v-560c0-53.020 42.98-96 96-96h1008c26.466 0 48 21.534 48 48v672c0 26.466-21.534 48-48 48zM64 160v544h64v-544c0-17.644-14.356-32-32-32s-32 14.356-32 32zM1088 128h-901.484c3.475 9.513 5.484 20.495 5.484 31.947 0 0.019 0 0.038 0 0.056v-0.003 608h896v-640zM280 320h336c13.254 0 24 10.746 24 24v336c0 13.254-10.746 24-24 24h-336c-13.254 0-24-10.746-24-24v-336c0-13.254 10.746-24 24-24zM320 640h256v-256h-256v256zM256 216v16c0 13.254 10.746 24 24 24h336c13.254 0 24-10.746 24-24v-16c0-13.254-10.746-24-24-24h-336c-13.254 0-24 10.746-24 24zM704 216v16c0 13.254 10.746 24 24 24h272c13.254 0 24-10.746 24-24v-16c0-13.254-10.746-24-24-24h-272c-13.254 0-24 10.746-24 24zM704 344v16c0 13.254 10.746 24 24 24h272c13.254 0 24-10.746 24-24v-16c0-13.254-10.746-24-24-24h-272c-13.254 0-24 10.746-24 24zM704 600v16c0 13.254 10.746 24 24 24h272c13.254 0 24-10.746 24-24v-16c0-13.254-10.746-24-24-24h-272c-13.254 0-24 10.746-24 24zM704 472v16c0 13.254 10.746 24 24 24h272c13.254 0 24-10.746 24-24v-16c0-13.254-10.746-24-24-24h-272c-13.254 0-24 10.746-24 24z" />
<glyph unicode="&#xe916;" d="M480.487 647.317h66.065v-429.419h-66.065v429.419z" />
<glyph unicode="&#xe917;" d="M298.81 465.639h429.419v-66.065h-429.419v66.065z" />
<glyph unicode="&#xe918;" glyph-name="hamburger" horiz-adv-x="1385" d="M12.339 914.824h1325.176v-90.353h-1325.176v90.353zM12.339 493.176h1325.176v-90.353h-1325.176v90.353zM12.339 71.529h1325.176v-90.353h-1325.176v90.353z" />
<glyph unicode="&#xe919;" glyph-name="search" d="M426.667 874.667c188.513 0 341.333-152.82 341.333-341.333 0-78.857-26.741-151.468-71.649-209.26l229.819-229.904c16.662-16.662 16.662-43.677 0-60.34s-43.677-16.662-60.34 0v0l-229.904 229.819c-57.792-44.908-130.403-71.649-209.26-71.649-188.513 0-341.333 152.82-341.333 341.333s152.82 341.333 341.333 341.333zM426.667 789.333c-141.385 0-256-114.615-256-256s114.615-256 256-256c141.385 0 256 114.615 256 256s-114.615 256-256 256z" />
<glyph unicode="&#xe91a;" glyph-name="scorrimento-listing" horiz-adv-x="1707" d="M1627.022 453.689l-426.667-443.733c-11.378-11.378-11.378-28.444 0-39.822s28.444-11.378 39.822 0c0 0 0 0 0 0l432.356 449.422c22.756 22.756 22.756 56.889 0 79.644l-432.356 449.422c-11.378 11.378-28.444 11.378-39.822 0 0 0 0 0 0 0-11.378-11.378-11.378-28.444 0-39.822l426.667-455.111zM1217.422-58.311c0 0 0 0 0 0-11.378 0-22.756 5.689-28.444 11.378-17.067 17.067-17.067 45.511 0 62.578l420.978 438.044-420.978 438.044c-17.067 17.067-17.067 45.511 0 62.578s45.511 17.067 62.578 0l432.356-449.422c28.444-28.444 28.444-68.267 0-96.711l-432.356-449.422c-11.378-11.378-22.756-17.067-34.133-17.067zM1217.422 931.556c-5.689 0-5.689 0-11.378-5.689s-5.689-17.067 0-22.756l426.667-443.733c5.689-5.689 5.689-11.378 0-17.067l-426.667-443.733c-5.689-5.689-5.689-17.067 0-22.756 0 0 5.689-5.689 11.378-5.689s5.689 0 11.378 5.689l432.356 449.422c17.067 17.067 17.067 39.822 0 56.889l-432.356 449.422c-5.689 0-5.689 0-11.378 0zM1627.022 408.178h-1570.133c-22.756 0-45.511 17.067-45.511 45.511s22.756 39.822 45.511 39.822h1570.133c22.756 0 45.511-17.067 45.511-45.511s-22.756-39.822-45.511-39.822z" />
<glyph unicode="&#xe91b;" d="M916.211 448c0-223.239-180.971-404.211-404.211-404.211s-404.211 180.971-404.211 404.211c0 223.239 180.971 404.211 404.211 404.211s404.211-180.971 404.211-404.211z" />
<glyph unicode="&#xe91c;" d="M512 16.842c-237.137 0-431.158 194.021-431.158 431.158s194.021 431.158 431.158 431.158 431.158-194.021 431.158-431.158-194.021-431.158-431.158-431.158zM512 825.263c-210.189 0-377.263-167.074-377.263-377.263s167.074-377.263 377.263-377.263c210.189 0 377.263 167.074 377.263 377.263s-167.074 377.263-377.263 377.263z" />
<glyph unicode="&#xe91d;" d="M382.653 663.579c16.168 0 32.337-5.389 43.116-10.779s26.947-10.779 32.337-21.558c10.779-10.779 21.558-21.558 26.947-32.337 5.389-16.168 5.389-26.947 5.389-43.116s0-32.337-5.389-43.116c-5.389-10.779-16.168-26.947-21.558-32.337-10.779-10.779-21.558-16.168-37.726-21.558-10.779-5.389-26.947-10.779-43.116-10.779s-32.337 5.389-43.116 10.779c-10.779 5.389-21.558 10.779-32.337 21.558-10.779 5.389-16.168 21.558-21.558 32.337s-10.779 26.947-10.779 43.116c0 16.168 0 32.337 5.389 43.116s10.779 26.947 21.558 32.337c10.779 10.779 21.558 16.168 32.337 21.558 21.558 5.389 32.337 10.779 48.505 10.779zM382.653 609.684c-16.168 0-26.947-5.389-37.726-16.168s-16.168-21.558-16.168-37.726c0-16.168 5.389-26.947 16.168-37.726s21.558-16.168 37.726-16.168 26.947 5.389 37.726 16.168c10.779 10.779 16.168 21.558 16.168 37.726s-5.389 26.947-16.168 37.726c-10.779 10.779-21.558 16.168-37.726 16.168z" />
<glyph unicode="&#xe91e;" d="M695.242 647.411c5.389-10.779 5.389-21.558 0-32.337l-323.368-366.484c-5.389-5.389-21.558-10.779-26.947 0 0 0 0 0 0 0-10.779 10.779-10.779 26.947 0 32.337l323.368 366.484c5.389 5.389 16.168 10.779 26.947 0-5.389 0 0 0 0 0z" />
<glyph unicode="&#xe91f;" d="M652.126 448c16.168 0 32.337-5.389 43.116-10.779s26.947-10.779 32.337-21.558c10.779-10.779 21.558-21.558 26.947-32.337 5.389-16.168 5.389-26.947 5.389-43.116s0-32.337-5.389-43.116c-5.389-10.779-16.168-26.947-21.558-32.337-10.779-10.779-21.558-16.168-37.726-21.558-10.779-5.389-26.947-10.779-43.116-10.779s-32.337 5.389-43.116 10.779c-10.779 5.389-21.558 10.779-32.337 21.558-10.779 5.389-16.168 21.558-21.558 32.337s-10.779 26.947-10.779 43.116c0 16.168 0 32.337 5.389 43.116s10.779 26.947 21.558 32.337c10.779 10.779 21.558 16.168 32.337 21.558 21.558 5.389 32.337 10.779 48.505 10.779zM652.126 394.105c-16.168 0-26.947-5.389-37.726-16.168s-16.168-21.558-16.168-37.726c0-16.168 5.389-26.947 16.168-37.726s21.558-16.168 37.726-16.168c16.168 0 26.947 5.389 37.726 16.168s16.168 21.558 16.168 37.726c0 16.168-5.389 26.947-16.168 37.726s-21.558 16.168-37.726 16.168z" />
<glyph unicode="&#xe920;" d="M916.211 448c0-223.239-180.971-404.211-404.211-404.211s-404.211 180.971-404.211 404.211c0 223.239 180.971 404.211 404.211 404.211s404.211-180.971 404.211-404.211z" />
<glyph unicode="&#xe921;" d="M512 16.842c-237.137 0-431.158 194.021-431.158 431.158s194.021 431.158 431.158 431.158 431.158-194.021 431.158-431.158-194.021-431.158-431.158-431.158zM512 825.263c-210.189 0-377.263-167.074-377.263-377.263s167.074-377.263 377.263-377.263c210.189 0 377.263 167.074 377.263 377.263s-167.074 377.263-377.263 377.263z" />
<glyph unicode="&#xe922;" d="M382.653 663.579c16.168 0 32.337-5.389 43.116-10.779s26.947-10.779 32.337-21.558c10.779-10.779 21.558-21.558 26.947-32.337 5.389-16.168 5.389-26.947 5.389-43.116s0-32.337-5.389-43.116c-5.389-10.779-16.168-26.947-21.558-32.337-10.779-10.779-21.558-16.168-37.726-21.558-10.779-5.389-26.947-10.779-43.116-10.779s-32.337 5.389-43.116 10.779c-10.779 5.389-21.558 10.779-32.337 21.558-10.779 5.389-16.168 21.558-21.558 32.337s-10.779 26.947-10.779 43.116c0 16.168 0 32.337 5.389 43.116s10.779 26.947 21.558 32.337c10.779 10.779 21.558 16.168 32.337 21.558 21.558 5.389 32.337 10.779 48.505 10.779zM382.653 609.684c-16.168 0-26.947-5.389-37.726-16.168s-16.168-21.558-16.168-37.726c0-16.168 5.389-26.947 16.168-37.726s21.558-16.168 37.726-16.168c16.168 0 26.947 5.389 37.726 16.168s16.168 21.558 16.168 37.726c0 16.168-5.389 26.947-16.168 37.726s-21.558 16.168-37.726 16.168z" />
<glyph unicode="&#xe923;" d="M695.242 647.411c5.389-10.779 5.389-21.558 0-32.337l-317.979-366.484c-5.389-5.389-21.558-10.779-26.947 0 0 0 0 0 0 0-10.779 10.779-10.779 21.558 0 32.337l323.368 366.484c0 5.389 10.779 10.779 21.558 0-5.389 0 0 0 0 0z" />
<glyph unicode="&#xe924;" d="M652.126 448c16.168 0 32.337-5.389 43.116-10.779s26.947-10.779 32.337-21.558c10.779-10.779 16.168-21.558 21.558-32.337s5.389-26.947 5.389-43.116c0-16.168 0-32.337-5.389-43.116s-10.779-26.947-21.558-32.337c-10.779-10.779-21.558-16.168-32.337-21.558s-26.947-10.779-43.116-10.779c-16.168 0-32.337 5.389-43.116 10.779s-26.947 10.779-32.337 21.558c-10.779 10.779-16.168 21.558-21.558 32.337s-5.389 26.947-5.389 43.116c0 16.168 0 32.337 5.389 43.116s10.779 26.947 21.558 32.337c10.779 10.779 21.558 16.168 32.337 21.558 16.168 5.389 26.947 10.779 43.116 10.779zM652.126 394.105c-16.168 0-26.947-5.389-37.726-16.168s-16.168-21.558-16.168-37.726c0-16.168 5.389-26.947 16.168-37.726s21.558-16.168 37.726-16.168c16.168 0 26.947 5.389 37.726 16.168s16.168 21.558 16.168 37.726c0 16.168-5.389 26.947-16.168 37.726s-21.558 16.168-37.726 16.168z" />
<glyph unicode="&#xe925;" d="M0 448c0 282.77 229.23 512 512 512s512-229.23 512-512c0-282.77-229.23-512-512-512v0c-282.77 0-512 229.23-512 512v0z" />
<glyph unicode="&#xe926;" d="M565.333 146.987v278.613h77.013l10.027 96h-87.040v48c0 24.96 2.347 38.4 38.187 38.4h48.213v96h-75.733c-92.373 0-124.8-46.507-124.8-124.8v-57.813h-58.667v-95.787h57.6v-278.613z" />
<glyph unicode="&#xe927;" d="M0 448c0 282.77 229.23 512 512 512s512-229.23 512-512c0-282.77-229.23-512-512-512v0c-282.77 0-512 229.23-512 512v0z" />
<glyph unicode="&#xe928;" d="M384 578.56v-348.587h-116.907v348.587zM391.68 686.507c0-0.001 0-0.002 0-0.003 0-33.461-27.126-60.587-60.587-60.587-1.802 0-3.586 0.079-5.349 0.233l0.229-0.016c-1.072-0.068-2.325-0.107-3.587-0.107-33.343 0-60.373 27.030-60.373 60.373s27.030 60.373 60.373 60.373c1.262 0 2.515-0.039 3.758-0.115l-0.171 0.008c1.341 0.106 2.903 0.166 4.48 0.166 33.327 0 60.347-27.003 60.373-60.324v-0.003zM802.56 430.507v-199.893h-116.907v185.813c0 46.933-16.853 78.933-58.88 78.933-27.37-0.363-50.563-17.851-59.379-42.221l-0.141-0.446c-2.478-7.427-3.907-15.978-3.907-24.864 0-1.159 0.024-2.313 0.073-3.46l-0.005 0.164v-194.773h-115.413s0 316.16 0 348.8h116.053v-49.28c20.329 34.733 57.454 57.691 99.942 57.691 1.615 0 3.222-0.033 4.82-0.099l-0.229 0.007c75.733 0 133.12-49.92 133.12-157.013z" />
<glyph unicode="&#xe929;" d="M0 448c0 282.77 229.23 512 512 512s512-229.23 512-512c0-282.77-229.23-512-512-512v0c-282.77 0-512 229.23-512 512v0z" />
<glyph unicode="&#xe92a;" d="M517.973 543.787v-17.707l-17.92 2.133c-67.263 8.737-126.173 39.214-170.648 84.035l-0.018 0.019-23.68 23.467-5.973-17.493c-4.070-10.693-6.427-23.058-6.427-35.973 0-27.337 10.558-52.207 27.818-70.757l-0.058 0.063c14.293-15.147 11.093-17.493-13.653-8.32-4.943 2.311-10.719 3.713-16.809 3.839l-0.045 0.001c1.242-17.841 5.911-34.322 13.352-49.174l-0.339 0.747c11.506-20.019 28.262-35.883 48.405-45.993l0.661-0.301 17.493-8.32h-21.333c-21.333 0-21.333 0-18.773-8.107 12.933-28.355 36.876-49.79 66.218-59.096l0.769-0.21 21.333-7.467-19.2-11.52c-27.588-16.061-60.545-25.917-95.723-26.874l-0.277-0.006c-1.255 0.050-2.727 0.078-4.207 0.078-8.947 0-17.652-1.039-25.999-3.004l0.766 0.152c20.927-13.282 45.098-24.209 70.791-31.524l1.956-0.476c25.633-7.843 55.096-12.359 85.613-12.359 54.795 0 106.19 14.558 150.527 40.018l-1.474-0.78c52.582 33.902 93.618 81.662 118.465 138.151l0.788 2.009c12.88 31.716 21.759 68.456 24.873 106.825l0.087 1.335c0 16.64 1.067 18.773 21.333 38.613 8.75 8.408 16.789 17.394 24.117 26.954l0.417 0.566c3.627 6.827 3.2 6.827-15.147 0-30.293-10.88-34.56-9.387-19.627 6.827 10.526 10.72 18.814 23.676 24.083 38.086l0.237 0.741c0 1.067-5.333 0-11.307-4.053-8.701-4.324-19.158-8.523-29.964-11.935l-1.609-0.438-19.413-5.973-17.493 11.947c-8.788 6.053-18.849 11.368-29.517 15.454l-0.99 0.333c-8.574 2.148-18.417 3.38-28.548 3.38-12.177 0-23.938-1.781-35.038-5.095l0.865 0.222c-41.014-14.446-69.882-52.86-69.882-98.016 0-1.767 0.044-3.524 0.132-5.269l-0.010 0.245z" />
<glyph unicode="&#xe92b;" glyph-name="home-active" horiz-adv-x="975" d="M811.886 82.286h-226.282c-16.158 0-29.257 13.099-29.257 29.257v199.356c0 16.158-13.099 29.257-29.257 29.257h-103.333c-16.158 0-29.257-13.099-29.257-29.257v-199.356c0-16.158-13.099-29.257-29.257-29.257h-226.271c-16.158 0-29.257 13.099-29.257 29.257v455.954c0 9.324 4.444 18.089 11.965 23.6l336.447 246.519c10.294 7.543 24.289 7.543 34.583 0l336.468-246.519c7.521-5.511 11.966-14.276 11.966-23.601v-455.954c0-16.158-13.099-29.257-29.257-29.257z" />
<glyph unicode="&#xe92c;" horiz-adv-x="1109" d="M1024 439.467c0-278.057-225.41-503.467-503.467-503.467s-503.467 225.41-503.467 503.467c0 278.057 225.41 503.467 503.467 503.467s503.467-225.41 503.467-503.467z" />
<glyph unicode="&#xe92d;" horiz-adv-x="1109" d="M665.6 132.267h-358.4c-23.893 0-42.667 18.773-42.667 42.667v546.133c0 23.893 18.773 42.667 42.667 42.667h358.4c23.893 0 42.667-18.773 42.667-42.667v-546.133c0-23.893-18.773-42.667-42.667-42.667zM307.2 746.667c-13.653 0-25.6-11.947-25.6-25.6v-546.133c0-13.653 11.947-25.6 25.6-25.6h358.4c13.653 0 25.6 11.947 25.6 25.6v546.133c0 13.653-11.947 25.6-25.6 25.6h-358.4z" />
<glyph unicode="&#xe92e;" horiz-adv-x="1109" d="M341.333 721.067h307.2c10.24 0 17.067-6.827 17.067-17.067v-392.533c0-10.24-6.827-17.067-17.067-17.067h-307.2c-10.24 0-17.067 6.827-17.067 17.067v392.533c0 10.24 6.827 17.067 17.067 17.067z" />
<glyph unicode="&#xe92f;" horiz-adv-x="1109" d="M512 209.067c0-9.426-7.641-17.067-17.067-17.067s-17.067 7.641-17.067 17.067c0 9.426 7.641 17.067 17.067 17.067s17.067-7.641 17.067-17.067z" />
<glyph unicode="&#xe930;" horiz-adv-x="1109" d="M273.067 268.8h426.667v-17.067h-426.667v17.067z" />
<glyph unicode="&#xe931;" horiz-adv-x="1109" d="M375.467 635.733h426.667v-256h-426.667z" />
<glyph unicode="&#xe932;" horiz-adv-x="1109" d="M810.667 371.2h-443.733v273.067h443.733v-273.067zM384 388.267h409.6v238.933h-409.6v-238.933z" />
<glyph unicode="&#xe933;" horiz-adv-x="1109" d="M426.667 669.867c75.093 0 133.12-11.947 170.667-37.547v-252.587c-40.96 23.893-97.28 37.547-170.667 37.547v252.587z" />
<glyph unicode="&#xe934;" horiz-adv-x="1109" d="M605.867 364.373l-13.653 8.533c-39.253 23.893-95.573 35.84-165.547 35.84h-8.533v269.653h8.533c76.8 0 136.533-13.653 175.787-37.547l3.413-1.707v-274.773zM435.2 425.813c63.147 0 114.347-11.947 153.6-30.72v233.813c-35.84 20.48-87.040 32.427-153.6 32.427v-235.52z" />
<glyph unicode="&#xe935;" horiz-adv-x="1109" d="M597.333 632.32v-252.587c40.96 23.893 97.28 37.547 170.667 37.547v252.587c-75.093 0-133.12-11.947-170.667-37.547z" />
<glyph unicode="&#xe936;" horiz-adv-x="1109" d="M588.8 364.373v273.067l3.413 1.707c39.253 25.6 98.987 37.547 175.787 37.547h8.533v-269.653h-8.533c-71.68 0-128-11.947-165.547-35.84l-13.653-6.827zM605.867 628.907v-233.813c39.253 20.48 90.453 30.72 153.6 30.72v235.52c-66.56-1.707-117.76-11.947-153.6-32.427z" />
<glyph unicode="&#xe937;" horiz-adv-x="1109" d="M969.387 567.467c-10.24 0-17.067 5.12-23.893 8.533l-1.707 1.707c-1.707 1.707-3.413 1.707-5.12 3.413-1.707 0-3.413-1.707-5.12-3.413l-1.707-1.707c-8.533-5.12-18.773-11.947-30.72-8.533-13.653 3.413-20.48 15.36-25.6 22.187-1.707 1.707-3.413 3.413-3.413 5.12h-6.827c-3.413 0-6.827 0-10.24 0-6.827 0-13.653 1.707-20.48 5.12-11.947 8.533-13.653 22.187-13.653 30.72v1.707c0 1.707 0 3.413 0 5.12-1.707 1.707-3.413 1.707-5.12 1.707-10.24 3.413-22.187 6.827-29.013 18.773-5.12 11.947-1.707 22.187 0 30.72l1.707 3.413c0 1.707 1.707 3.413 1.707 3.413 0 1.707-1.707 1.707-3.413 3.413l-1.707 1.707c-6.827 6.827-17.067 15.36-17.067 29.013s10.24 22.187 17.067 29.013c1.707 1.707 3.413 3.413 3.413 3.413 0 1.707 0 3.413-1.707 3.413v1.707c-3.413 8.533-6.827 20.48-1.707 32.427 6.827 11.947 18.773 15.36 27.307 18.773h1.707c1.707 0 3.413 0 3.413 1.707v1.707c1.707 13.653 5.12 27.307 13.653 34.133 6.827 5.12 15.36 6.827 22.187 6.827 3.413 0 6.827 0 10.24-1.707 3.413 0 5.12 0 6.827 0 1.707 1.707 1.707 1.707 3.413 3.413l1.707 1.707c5.12 10.24 11.947 22.187 25.6 25.6s23.893-3.413 30.72-8.533l1.707-1.707c1.707-1.707 3.413-1.707 5.12-1.707s3.413 1.707 5.12 1.707l1.707 1.707c8.533 5.12 18.773 11.947 30.72 8.533 13.653-3.413 20.48-13.653 25.6-22.187l1.707-1.707c0-1.707 1.707-3.413 3.413-3.413s3.413 0 5.12 0c5.12 0 8.533 1.707 13.653 1.707 6.827 0 13.653-1.707 20.48-5.12 11.947-8.533 13.653-22.187 13.653-30.72v-1.707c0-1.707 0-3.413 0-5.12 1.707-1.707 3.413-1.707 5.12-1.707 10.24-3.413 22.187-6.827 29.013-18.773 5.12-11.947 1.707-22.187-1.707-30.72l-1.707-3.413c0-1.707-1.707-3.413-1.707-3.413 0-1.707 1.707-1.707 3.413-3.413l1.707-1.707c6.827-6.827 15.36-15.36 15.36-29.013s-8.533-22.187-15.36-29.013l-1.707-3.413c-1.707 0-1.707-1.707-3.413-3.413 0-1.707 0-3.413 1.707-3.413v-1.707c3.413-8.533 6.827-20.48 1.707-32.427s-17.067-15.36-27.307-18.773h-1.707c-1.707 0-3.413-1.707-5.12-1.707 0-1.707 0-3.413 0-5.12-1.707-10.24-1.707-23.893-13.653-32.427-8.533-6.827-22.187-6.827-32.427-5.12h-3.413c-1.707 0-3.413 0-5.12 0 0 0-1.707-1.707-3.413-3.413l-1.707-1.707c-5.12-6.827-11.947-18.773-25.6-22.187 0 0-1.707 0-3.413 0zM962.56 605.013c1.707-1.707 3.413-1.707 5.12-3.413 1.707 1.707 1.707 3.413 3.413 5.12 3.413 6.827 8.533 13.653 15.36 17.067l3.413 1.707h3.413c8.533 1.707 15.36 1.707 23.893 0 1.707 0 3.413 0 5.12 0 0 1.707 0 5.12 0 6.827 0 6.827 1.707 15.36 6.827 22.187l3.413 3.413c6.827 5.12 13.653 8.533 20.48 10.24 1.707 0 3.413 1.707 5.12 1.707 0 1.707-1.707 3.413-1.707 5.12-3.413 6.827-5.12 15.36-5.12 23.893v3.413l1.707 3.413c3.413 6.827 8.533 13.653 13.653 18.773v0c1.707 1.707 3.413 3.413 3.413 3.413-1.707 1.707-3.413 3.413-3.413 3.413-6.827 5.12-11.947 11.947-13.653 18.773l1.707 5.12v3.413c0 8.533 1.707 15.36 3.413 23.893v0c0 1.707 1.707 3.413 1.707 5.12-1.707 0-5.12 1.707-6.827 1.707-5.12 0-11.947 5.12-18.773 10.24l-3.413 3.413c-5.12 6.827-6.827 15.36-6.827 23.893 0 1.707 0 3.413 0 5.12-1.707 0-5.12 0-6.827-1.707-6.827-1.707-15.36-1.707-23.893 1.707l-5.12 1.707c-6.827 5.12-11.947 10.24-15.36 17.067-1.707 1.707-1.707 3.413-3.413 5.12-1.707-1.707-3.413-1.707-5.12-3.413-5.12-3.413-13.653-6.827-22.187-8.533h-6.827c-8.533 1.707-15.36 5.12-22.187 10.24-1.707 0-3.413 1.707-5.12 3.413-1.707-1.707-1.707-3.413-3.413-5.12-3.413-6.827-8.533-13.653-15.36-17.067l-1.707-3.413h-3.413c-8.533-1.707-17.067-3.413-25.6-1.707-1.707 0-3.413 0-5.12 0-1.707-3.413-1.707-8.533-3.413-11.947 0-5.12-1.707-11.947-5.12-15.36l-3.413-3.413c-6.827-5.12-13.653-8.533-20.48-10.24-1.707 0-3.413-1.707-5.12-1.707 0-1.707 1.707-3.413 1.707-5.12 3.413-5.12 5.12-13.653 5.12-22.187v-3.413l-1.707-3.413c-3.413-6.827-8.533-13.653-15.36-18.773 0 0-1.707-1.707-3.413-3.413 1.707-1.707 3.413-3.413 3.413-3.413 6.827-5.12 10.24-11.947 13.653-18.773l1.707-3.413v-3.413c0-8.533-1.707-15.36-3.413-23.893v0c0-1.707-1.707-3.413-1.707-3.413 1.707 0 5.12-1.707 6.827-1.707 6.827-1.707 13.653-5.12 20.48-10.24l3.413-3.413c3.413-6.827 6.827-15.36 6.827-22.187 0-1.707 0-3.413 0-5.12 1.707 0 5.12 0 6.827 1.707h1.707c15.36 3.413 25.6-1.707 32.427-8.533 3.413-3.413 6.827-8.533 10.24-11.947 1.707-1.707 3.413-3.413 3.413-5.12 1.707 0 3.413 1.707 5.12 3.413 6.827 5.12 13.653 8.533 22.187 8.533h3.413c10.24-6.827 17.067-10.24 23.893-15.36zM1025.707 627.2v0 0zM802.133 727.893v0 0zM802.133 731.307v0 0zM814.080 784.213v0 0zM855.040 833.707c0 0 0 0 0 0s0 0 0 0z" />
<glyph unicode="&#xe938;" horiz-adv-x="1109" d="M1082.027 712.533c-5.12-3.413-6.827-6.827-10.24-11.947 0-5.12 0-10.24 3.413-15.36 1.707-6.827 5.12-13.653 1.707-18.773s-10.24-8.533-17.067-10.24c-5.12-1.707-10.24-3.413-13.653-6.827-3.413-5.12-3.413-10.24-3.413-15.36 0-6.827-1.707-15.36-6.827-18.773-3.413-3.413-10.24-3.413-20.48-1.707-5.12 1.707-11.947 1.707-17.067 0 0 0-1.707 0-1.707 0-5.12-3.413-8.533-6.827-10.24-11.947-3.413-6.827-8.533-11.947-13.653-13.653-6.827-1.707-11.947 3.413-18.773 6.827-5.12 3.413-10.24 5.12-15.36 6.827-5.12 0-10.24-3.413-15.36-6.827-6.827-3.413-13.653-8.533-18.773-6.827s-10.24 8.533-13.653 13.653c-1.707 3.413-5.12 6.827-6.827 10.24-1.707 1.707-6.827 6.827-17.067 3.413h-1.707c-3.413 0-6.827 0-8.533 0-3.413 0-8.533 0-10.24 3.413-5.12 3.413-5.12 11.947-6.827 18.773 0 5.12-1.707 10.24-3.413 15.36-3.413 3.413-8.533 6.827-13.653 6.827-6.827 1.707-15.36 5.12-17.067 10.24-3.413 5.12 0 11.947 1.707 18.773 1.707 5.12 3.413 10.24 3.413 15.36-1.707 5.12-5.12 8.533-10.24 11.947-5.12 5.12-10.24 10.24-10.24 17.067s5.12 11.947 10.24 17.067c3.413 3.413 6.827 6.827 10.24 11.947 0 5.12-1.707 10.24-3.413 15.36-1.707 6.827-5.12 13.653-1.707 18.773s10.24 8.533 17.067 10.24c5.12 1.707 10.24 3.413 13.653 6.827 1.707 3.413 3.413 6.827 3.413 10.24 1.707 6.827 3.413 20.48 8.533 23.893 3.413 1.707 6.827 3.413 10.24 3.413s6.827 0 10.24 0c5.12-1.707 11.947-1.707 17.067 0 5.12 3.413 8.533 6.827 10.24 11.947-1.707 3.413 1.707 10.24 8.533 11.947s11.947-3.413 18.773-6.827c5.12-3.413 10.24-5.12 15.36-6.827 5.12 1.707 10.24 3.413 15.36 6.827s11.947 8.533 18.773 6.827c6.827-1.707 10.24-8.533 13.653-13.653 1.707-5.12 6.827-8.533 10.24-11.947 5.12-1.707 11.947-1.707 17.067 0 3.413 0 6.827 0 10.24 0s6.827 0 10.24-3.413c5.12-3.413 6.827-11.947 6.827-18.773 0-5.12 1.707-10.24 3.413-15.36 3.413-3.413 8.533-6.827 15.36-6.827 6.827-1.707 15.36-5.12 17.067-10.24 3.413-5.12 0-11.947-1.707-18.773-1.707-5.12-3.413-10.24-3.413-15.36 1.707-5.12 5.12-8.533 10.24-11.947 5.12-5.12 10.24-10.24 10.24-17.067s-5.12-13.653-10.24-18.773z" />
<glyph unicode="&#xe939;" horiz-adv-x="1109" d="M969.387 576c-6.827 0-13.653 3.413-20.48 6.827l-1.707 1.707c-3.413 1.707-6.827 3.413-10.24 5.12-3.413 0-6.827-1.707-10.24-5.12-8.533-5.12-17.067-10.24-25.6-8.533s-15.36 10.24-20.48 17.067c-1.707 3.413-3.413 5.12-6.827 8.533-1.707 1.707-3.413 1.707-6.827 0h-5.12c-1.707 0-5.12 0-8.533 0-5.12 0-11.947 1.707-15.36 3.413-8.533 6.827-10.24 17.067-10.24 23.893 0 5.12-1.707 8.533-1.707 10.24-3.413 1.707-6.827 3.413-10.24 5.12-8.533 3.413-18.773 6.827-22.187 15.36s-1.707 17.067 1.707 23.893v1.707c1.707 3.413 3.413 6.827 3.413 10.24-1.707 3.413-3.413 5.12-6.827 8.533-6.827 6.827-13.653 13.653-13.653 23.893s6.827 17.067 13.653 23.893c3.413 3.413 5.12 5.12 6.827 8.533 0 3.413-1.707 6.827-1.707 10.24-3.413 8.533-6.827 18.773-1.707 27.307s15.36 11.947 22.187 15.36c5.12 1.707 6.827 1.707 10.24 5.12 0 1.707 1.707 3.413 1.707 5.12 1.707 13.653 5.12 23.893 10.24 30.72 3.413 1.707 8.533 3.413 13.653 3.413 3.413 0 6.827 0 10.24 0 5.12-1.707 8.533-1.707 11.947 0s5.12 5.12 6.827 8.533c5.12 8.533 10.24 17.067 20.48 18.773s17.067-3.413 23.893-6.827c3.413-3.413 6.827-5.12 10.24-5.12s6.827 1.707 10.24 5.12c8.533 5.12 17.067 10.24 25.6 8.533 10.24-1.707 15.36-10.24 20.48-17.067 1.707-3.413 3.413-6.827 6.827-8.533 3.413 0 6.827-1.707 11.947 0 5.12-3.413 8.533-3.413 11.947-3.413 5.12 0 10.24-1.707 15.36-3.413 8.533-6.827 10.24-17.067 10.24-23.893 0-5.12 1.707-8.533 1.707-10.24 3.413-1.707 6.827-3.413 10.24-5.12 8.533-3.413 18.773-6.827 22.187-15.36s1.707-17.067-1.707-23.893v-1.707c-1.707-3.413-3.413-6.827-3.413-10.24 1.707-3.413 3.413-5.12 6.827-8.533 6.827-6.827 13.653-13.653 13.653-23.893s-6.827-17.067-13.653-22.187l-1.707-1.707c-3.413-1.707-5.12-5.12-6.827-6.827 0-3.413 1.707-6.827 1.707-10.24 3.413-8.533 6.827-18.773 1.707-27.307-3.413-8.533-13.653-11.947-22.187-15.36-5.12-1.707-8.533-3.413-10.24-5.12-1.707-3.413-1.707-6.827-1.707-10.24-1.707-8.533-1.707-18.773-10.24-25.6-6.827-5.12-17.067-5.12-25.6-3.413-5.12 1.707-8.533 1.707-13.653 0-3.413-1.707-5.12-5.12-6.827-8.533-5.12-8.533-10.24-17.067-20.48-18.773 3.413 0 1.707 0 0 0zM936.96 606.72v0c8.533-1.707 15.36-3.413 20.48-8.533 5.12-3.413 8.533-5.12 11.947-5.12s6.827 6.827 8.533 10.24c1.707 5.12 6.827 10.24 13.653 13.653l1.707 1.707h3.413c5.12 1.707 13.653 1.707 20.48 0 8.533-1.707 11.947 0 11.947 0 1.707 1.707 3.413 8.533 3.413 11.947 0 6.827 1.707 11.947 5.12 18.773l1.707 1.707c5.12 5.12 11.947 8.533 18.773 8.533 5.12 1.707 10.24 3.413 11.947 5.12s-1.707 8.533-3.413 13.653c-3.413 5.12-3.413 11.947-3.413 18.773v3.413c1.707 6.827 6.827 11.947 11.947 15.36v0c3.413 3.413 8.533 6.827 8.533 10.24s-5.12 6.827-8.533 10.24c-5.12 3.413-8.533 8.533-11.947 15.36v3.413c0 6.827 1.707 13.653 3.413 20.48v0c1.707 3.413 3.413 8.533 1.707 11.947-1.707 1.707-6.827 5.12-11.947 6.827-6.827 1.707-11.947 5.12-17.067 8.533l-1.707 1.707c-3.413 6.827-5.12 11.947-5.12 18.773 0 3.413-1.707 10.24-3.413 11.947-1.707 5.12-3.413 5.12-5.12 5.12-3.413 0-6.827 0-8.533 0-6.827-1.707-13.653-1.707-20.48 0h-1.707c-5.12 3.413-10.24 8.533-13.653 15.36-1.707 3.413-5.12 8.533-8.533 10.24-3.413 0-8.533-1.707-11.947-5.12-5.12-3.413-11.947-6.827-18.773-8.533h-3.413c-6.827 1.707-13.653 3.413-18.773 8.533-3.413 1.707-8.533 5.12-11.947 5.12s-6.827-6.827-8.533-10.24c-1.707-5.12-6.827-10.24-13.653-13.653l-1.707-1.707c-6.827-1.707-13.653-1.707-20.48 0-1.707 0-5.12 0-8.533 0-1.707 0-3.413 0-5.12-1.707s-3.413-6.827-5.12-18.773c0-3.413-1.707-8.533-3.413-11.947l-1.707-1.707c-5.12-5.12-11.947-8.533-18.773-8.533-3.413-1.707-10.24-3.413-11.947-5.12s1.707-8.533 1.707-11.947c3.413-5.12 3.413-11.947 3.413-18.773v-3.413c-3.413-6.827-6.827-11.947-11.947-15.36-3.413-3.413-8.533-6.827-8.533-10.24s5.12-6.827 8.533-10.24c5.12-3.413 8.533-8.533 11.947-15.36v-3.413c0-6.827 0-13.653-3.413-20.48v0c-1.707-3.413-3.413-8.533-1.707-11.947 1.707-1.707 8.533-5.12 11.947-6.827 5.12-1.707 11.947-5.12 17.067-8.533l1.707-1.707c3.413-6.827 5.12-11.947 5.12-20.48 0-3.413 1.707-10.24 3.413-11.947 1.707 0 3.413-1.707 5.12-1.707 3.413 0 6.827 0 8.533 0h1.707c15.36 5.12 22.187-3.413 23.893-6.827 3.413-3.413 5.12-6.827 8.533-10.24 3.413-6.827 6.827-10.24 8.533-10.24 3.413 0 8.533 3.413 11.947 5.12 8.533 3.413 15.36 6.827 22.187 8.533v0z" />
<glyph unicode="&#xe93a;" horiz-adv-x="1109" d="M1001.813 690.347v6.827c0 1.707-1.707 3.413-3.413 3.413h-18.773c-1.707 0-1.707 0-1.707 1.707v81.92c0 1.707-1.707 3.413-3.413 3.413h-6.827c0 0-1.707 0-1.707 0l-25.6-10.24c-1.707 0-1.707-3.413-1.707-5.12l1.707-5.12c0-1.707 3.413-3.413 5.12-1.707l15.36 5.12c1.707 0 1.707 0 1.707-1.707 0 0 0 0 0 0v-66.56c0-1.707 0-1.707-1.707-1.707h-20.48c-1.707 0-3.413-1.707-3.413-3.413v-6.827c0-1.707 1.707-3.413 3.413-3.413h56.32c3.413 0 5.12 1.707 5.12 3.413z" />
<glyph unicode="&#xe93b;" horiz-adv-x="1109" d="M925.013 758.613v0c3.413-3.413 3.413-8.533 0-11.947l-47.787-47.787c-3.413-3.413-8.533-3.413-11.947 0v0c-3.413 3.413-3.413 8.533 0 11.947l47.787 47.787c3.413 3.413 8.533 3.413 11.947 0z" />
<glyph unicode="&#xe93c;" horiz-adv-x="1109" d="M861.867 758.613v0c-3.413-3.413-3.413-8.533 0-11.947l47.787-47.787c3.413-3.413 8.533-3.413 11.947 0v0c3.413 3.413 3.413 8.533 0 11.947l-47.787 47.787c-3.413 3.413-8.533 3.413-11.947 0z" />
<glyph unicode="&#xe93d;" horiz-adv-x="1048" d="M963.765 448c0-249.503-202.262-451.765-451.765-451.765s-451.765 202.262-451.765 451.765c0 249.503 202.262 451.765 451.765 451.765s451.765-202.262 451.765-451.765z" />
<glyph unicode="&#xe93e;" horiz-adv-x="1048" d="M963.765 448c0-249.503-202.262-451.765-451.765-451.765s-451.765 202.262-451.765 451.765c0 249.503 202.262 451.765 451.765 451.765s451.765-202.262 451.765-451.765z" />
<glyph unicode="&#xe93f;" horiz-adv-x="1048" d="M662.588 559.435c12.047 12.047 36.141 12.047 48.188 0s12.047-36.141 0-48.188l-207.812-204.8c-12.047-12.047-36.141-12.047-48.188 0l-114.447 114.447c-12.047 12.047-12.047 36.141 0 48.188s36.141 12.047 48.188 0l90.353-90.353 183.718 180.706z" />
<glyph unicode="&#xe940;" horiz-adv-x="1048" d="M481.882 285.365c-12.047 0-24.094 3.012-33.129 12.047l-114.447 114.447c-9.035 9.035-15.059 21.082-15.059 33.129s6.024 24.094 15.059 33.129c18.071 18.071 48.188 18.071 66.259 0l81.318-81.318 174.682 171.671c18.071 18.071 48.188 18.071 66.259 0 9.035-9.035 15.059-21.082 15.059-33.129s-6.024-24.094-15.059-33.129l-207.812-204.8c-9.035-9.035-21.082-12.047-33.129-12.047zM364.424 466.071c-6.024 0-12.047-3.012-15.059-6.024s-6.024-9.035-6.024-15.059 3.012-12.047 6.024-15.059l114.447-114.447c9.035-9.035 24.094-9.035 33.129 0l207.812 204.8c3.012 3.012 6.024 9.035 6.024 15.059s-3.012 12.047-6.024 15.059c-9.035 9.035-24.094 9.035-33.129 0l-189.741-186.729-99.388 96.376c-6.024 3.012-12.047 6.024-18.071 6.024z" />
<glyph unicode="&#xe941;" horiz-adv-x="1048" d="M963.765 448c0-249.503-202.262-451.765-451.765-451.765s-451.765 202.262-451.765 451.765c0 249.503 202.262 451.765 451.765 451.765s451.765-202.262 451.765-451.765z" />
<glyph unicode="&#xe942;" horiz-adv-x="1048" d="M963.765 448c0-249.503-202.262-451.765-451.765-451.765s-451.765 202.262-451.765 451.765c0 249.503 202.262 451.765 451.765 451.765s451.765-202.262 451.765-451.765z" />
<glyph unicode="&#xe943;" horiz-adv-x="1048" d="M662.588 559.435c12.047 12.047 36.141 12.047 48.188 0s12.047-36.141 0-48.188l-207.812-204.8c-12.047-12.047-36.141-12.047-48.188 0l-114.447 114.447c-12.047 12.047-12.047 36.141 0 48.188s36.141 12.047 48.188 0l90.353-90.353 183.718 180.706z" />
<glyph unicode="&#xe944;" horiz-adv-x="1048" d="M481.882 285.365c-12.047 0-24.094 3.012-33.129 12.047l-114.447 114.447c-9.035 9.035-15.059 21.082-15.059 33.129s6.024 24.094 15.059 33.129c18.071 18.071 48.188 18.071 66.259 0l81.318-81.318 174.682 171.671c18.071 18.071 48.188 18.071 66.259 0 9.035-9.035 15.059-21.082 15.059-33.129s-6.024-24.094-15.059-33.129l-207.812-204.8c-9.035-9.035-21.082-12.047-33.129-12.047zM364.424 466.071c-6.024 0-12.047-3.012-15.059-6.024s-6.024-9.035-6.024-15.059 3.012-12.047 6.024-15.059l114.447-114.447c9.035-9.035 24.094-9.035 33.129 0l207.812 204.8c3.012 3.012 6.024 9.035 6.024 15.059s-3.012 12.047-6.024 15.059c-9.035 9.035-24.094 9.035-33.129 0l-189.741-186.729-99.388 96.376c-6.024 3.012-12.047 6.024-18.071 6.024z" />
<glyph unicode="&#xe945;" horiz-adv-x="1048" d="M963.765 448c0-249.503-202.262-451.765-451.765-451.765s-451.765 202.262-451.765 451.765c0 249.503 202.262 451.765 451.765 451.765s451.765-202.262 451.765-451.765z" />
<glyph unicode="&#xe946;" horiz-adv-x="1048" d="M948.706 448c0-241.186-195.52-436.706-436.706-436.706s-436.706 195.52-436.706 436.706c0 241.186 195.52 436.706 436.706 436.706s436.706-195.52 436.706-436.706z" />
<glyph unicode="&#xe947;" horiz-adv-x="1048" d="M512-3.765c-249.976 0-451.765 201.788-451.765 451.765s201.788 451.765 451.765 451.765c249.976 0 451.765-201.788 451.765-451.765s-201.788-451.765-451.765-451.765zM512 869.647c-231.906 0-421.647-189.741-421.647-421.647s189.741-421.647 421.647-421.647 421.647 189.741 421.647 421.647-189.741 421.647-421.647 421.647z" />
<glyph unicode="&#xe948;" horiz-adv-x="1048" d="M662.588 559.435c12.047 12.047 36.141 12.047 48.188 0s12.047-36.141 0-48.188l-207.812-204.8c-12.047-12.047-36.141-12.047-48.188 0l-114.447 114.447c-12.047 12.047-12.047 36.141 0 48.188s36.141 12.047 48.188 0l90.353-90.353 183.718 180.706z" />
<glyph unicode="&#xe949;" horiz-adv-x="1048" d="M481.882 285.365c-12.047 0-24.094 3.012-33.129 12.047l-114.447 114.447c-9.035 9.035-15.059 21.082-15.059 33.129s6.024 24.094 15.059 33.129c18.071 18.071 48.188 18.071 66.259 0l81.318-81.318 174.682 171.671c18.071 18.071 48.188 18.071 66.259 0 9.035-9.035 15.059-21.082 15.059-33.129s-6.024-24.094-15.059-33.129l-207.812-204.8c-9.035-9.035-21.082-12.047-33.129-12.047zM364.424 466.071c-6.024 0-12.047-3.012-15.059-6.024s-6.024-9.035-6.024-15.059 3.012-12.047 6.024-15.059l114.447-114.447c9.035-9.035 24.094-9.035 33.129 0l207.812 204.8c3.012 3.012 6.024 9.035 6.024 15.059s-3.012 12.047-6.024 15.059c-9.035 9.035-24.094 9.035-33.129 0l-189.741-186.729-99.388 96.376c-6.024 3.012-12.047 6.024-18.071 6.024z" />
<glyph unicode="&#xe94a;" d="M952.889 433.778c0-235.641-191.025-426.667-426.667-426.667s-426.667 191.025-426.667 426.667c0 235.641 191.025 426.667 426.667 426.667s426.667-191.025 426.667-426.667z" />
<glyph unicode="&#xe94b;" d="M952.889 433.778c0-235.641-191.025-426.667-426.667-426.667s-426.667 191.025-426.667 426.667c0 235.641 191.025 426.667 426.667 426.667s426.667-191.025 426.667-426.667z" />
<glyph unicode="&#xe94c;" d="M720.208 580.531l-104.017 78.204c-2.737 2.058-6.185 2.948-9.583 2.472s-6.465-2.276-8.526-5.005l-252.379-334.282c-1.341-1.776-2.196-3.867-2.481-6.070l-16.005-123.591c-0.58-4.477 1.246-8.928 4.81-11.724s8.341-3.525 12.583-1.92l120.022 45.386c2.281 0.864 4.269 2.352 5.735 4.292l252.379 334.282c4.272 5.658 3.137 13.688-2.538 17.956zM365.993 290.622l67.652-50.863-78.061-29.518 10.409 80.381zM457.501 254.018l-83.423 62.721 186.851 247.484 83.417-62.719-186.845-247.486zM659.852 522.042l-83.423 62.718 34.519 45.72 83.418-62.716-34.514-45.721z" />
<glyph unicode="&#xe94d;" d="M501.027-14.035l-90.341-28.415c-13.034-4.099-27.266-0.592-36.901 9.095l-66.788 67.143c-5.28 5.309-12.063 8.868-19.432 10.199l-93.198 16.824c-13.446 2.427-24.417 12.147-28.448 25.202l-27.935 90.49c-2.209 7.155-6.56 13.459-12.466 18.061l-74.704 58.208c-10.778 8.398-15.975 22.103-13.477 35.536l17.318 93.107c1.369 7.361 0.446 14.966-2.645 21.785l-39.097 86.257c-5.641 12.445-3.874 26.995 4.581 37.728l58.603 74.394c4.633 5.882 7.35 13.044 7.782 20.519l5.467 94.546c0.789 13.64 9.115 25.704 21.59 31.278l86.463 38.638c6.836 3.055 12.57 8.135 16.426 14.553l48.779 81.176c7.037 11.711 20.016 18.523 33.652 17.662l94.516-5.969c7.473-0.472 14.91 1.361 21.308 5.252l80.915 49.209c11.674 7.099 26.332 7.099 38.006 0l80.915-49.209c6.397-3.891 13.835-5.724 21.308-5.252l94.516 5.969c13.636 0.861 26.615-5.951 33.652-17.662l48.779-81.176c3.857-6.418 9.59-11.498 16.426-14.553l86.463-38.638c12.474-5.574 20.801-17.638 21.59-31.278l5.467-94.546c0.432-7.475 3.149-14.638 7.782-20.519l58.603-74.394c8.455-10.733 10.222-25.284 4.581-37.728l-39.097-86.257c-3.091-6.82-4.014-14.424-2.645-21.785l17.318-93.107c2.499-13.433-2.699-27.138-13.477-35.536l-74.704-58.208c-5.906-4.602-10.258-10.906-12.466-18.061l-27.935-90.49c-4.030-13.055-15.002-22.775-28.448-25.202l-93.198-16.824c-7.369-1.33-14.151-4.89-19.432-10.199l-66.788-67.143c-9.636-9.687-23.868-13.195-36.901-9.095l-90.341 28.415c-7.143 2.247-14.803 2.247-21.945 0z" />
<glyph unicode="&#xe94e;" d="M475.429 575.624c0-18.521-3.187-35.542-9.534-51.048-6.362-15.521-15.165-28.904-26.409-40.166-11.253-11.261-24.697-20.151-40.344-26.65-15.653-6.499-32.766-9.761-51.347-9.761-18.587 0-35.7 3.262-51.344 9.761-15.659 6.499-29.229 15.389-40.711 26.65-11.497 11.261-20.426 24.645-26.776 40.166-6.359 15.506-9.534 32.527-9.534 51.048 0 18.509 3.175 35.53 9.534 51.051 6.35 15.506 15.28 29.018 26.776 40.538 11.482 11.504 25.052 20.517 40.711 27.026 15.644 6.499 32.757 9.761 51.344 9.761 18.581 0 35.694-3.262 51.347-9.761 15.647-6.508 29.091-15.521 40.344-27.026 11.244-11.52 20.047-25.033 26.409-40.538 6.347-15.521 9.534-32.542 9.534-51.051v0z" />
<glyph unicode="&#xe94f;" d="M714.080 684.337c9.847-11.161 9.63-27.969-0.502-38.872l-403.029-433.689c-9.295-10.002-24.937-10.575-34.939-1.28-0.531 0.493-1.039 1.009-1.525 1.547-10.229 11.335-10.081 28.613 0.34 39.772l404.407 433.022c8.973 9.608 24.036 10.123 33.644 1.15 0.56-0.523 1.095-1.074 1.602-1.649z" />
<glyph unicode="&#xe950;" d="M804.571 319.624c0-18.521-3.187-35.542-9.534-51.048-6.362-15.521-15.165-28.904-26.409-40.166-11.253-11.261-24.697-20.151-40.344-26.65-15.653-6.499-32.766-9.761-51.347-9.761-18.587 0-35.7 3.262-51.344 9.761-15.659 6.499-29.229 15.389-40.711 26.65-11.497 11.261-20.426 24.645-26.776 40.166-6.359 15.506-9.534 32.527-9.534 51.048 0 18.509 3.175 35.53 9.534 51.051 6.35 15.506 15.28 29.018 26.776 40.538 11.482 11.504 25.052 20.517 40.711 27.026 15.644 6.499 32.757 9.761 51.344 9.761 18.581 0 35.694-3.262 51.347-9.761 15.647-6.508 29.091-15.521 40.344-27.026 11.244-11.52 20.047-25.033 26.409-40.538 6.347-15.521 9.534-32.542 9.534-51.051v0z" />
<glyph unicode="&#xe951;" d="M292.571 575.296c0-15.011 5.227-27.779 15.673-38.329 10.45-10.55 23.515-15.824 39.188-15.824s28.731 5.275 39.184 15.824c10.446 10.55 15.669 23.318 15.669 38.329 0 15.472-5.223 28.596-15.669 39.385-10.453 10.78-23.511 16.176-39.184 16.176s-28.738-5.396-39.188-16.176c-10.446-10.789-15.673-23.913-15.673-39.385v0z" />
<glyph unicode="&#xe952;" d="M621.714 319.296c0-15.011 5.227-27.779 15.673-38.329 10.45-10.55 23.515-15.824 39.188-15.824s28.731 5.275 39.184 15.824c10.446 10.55 15.669 23.318 15.669 38.329 0 15.472-5.223 28.596-15.669 39.385-10.453 10.78-23.511 16.176-39.184 16.176s-28.738-5.396-39.188-16.176c-10.446-10.789-15.673-23.913-15.673-39.385v0z" />
<glyph unicode="&#xe953;" glyph-name="ordini" horiz-adv-x="1240" d="M619.789 205.474c74.535 0 134.737-61.635 134.737-134.737 0-74.535-60.202-134.737-134.737-134.737s-134.737 60.202-134.737 134.737c0 74.535 60.202 134.737 134.737 134.737zM997.040 205.474c74.528 0 136.158-61.635 134.725-134.737 0-74.535-60.196-134.737-134.725-134.737s-134.725 60.202-134.725 134.737c0 74.535 60.196 134.737 134.725 134.737zM619.789 133.805c-35.834 0-64.502-28.667-64.502-64.502s28.667-64.502 64.502-64.502c35.834 0 64.502 28.667 64.502 64.502s-28.667 64.502-64.502 64.502zM997.040 133.805c-35.831 0-64.496-28.667-64.496-64.502s28.665-64.502 64.496-64.502c35.831 0 65.929 28.667 64.496 64.502 0 35.834-28.665 64.502-64.496 64.502zM372.179 960c13.946 0 25.826-9.175 30.13-21.183l1.248-4.623 27.456-136.772h777.915c9.152 0 18.304-3.871 24.841-11.613 4.358-5.376 6.9-13.441 5.357-21.953l-1.435-5.143-84.982-387.089c-13.728-61.582-67.959-107.881-131.991-111.963l-9.211-0.293h-419.682c-64.896 0-122.644 44.675-139.13 105.97l-2.071 8.866-104.594 521.28h-151.661c-18.304 0-32.685 14.193-32.685 32.257 0 16.258 11.649 29.38 27.322 31.842l5.363 0.415h177.809zM346.917 367.158c16.994 0 30.346-11.857 30.346-26.947 0-13.581-10.815-24.544-25.367-26.6l-4.979-0.347h-208.781c-16.994 0-30.346 11.857-30.346 26.947 0 13.581 10.815 24.544 25.367 26.6l4.979 0.347h208.781zM1168.397 735.488h-724.31l70.601-348.38c7.322-33.72 36.282-59.572 70.938-62.869l7.507-0.356h419.682c35.387 0 66.219 22.48 76.551 54.851l1.894 7.083 77.138 349.671zM293.022 528.842c16.994 0 30.346-11.857 30.346-26.947 0-13.581-10.815-24.544-25.367-26.6l-4.979-0.347h-208.781c-16.994 0-30.346 11.857-30.346 26.947 0 13.581 10.815 24.544 25.367 26.6l4.979 0.347h208.781zM238.99 690.526c17.071 0 30.483-11.857 30.483-26.947 0-13.414-10.598-24.273-24.086-26.52l-5.178-0.427h-209.726c-17.071 0-30.483 11.857-30.483 26.947 0 13.581 10.864 24.544 25.482 26.6l5.002 0.347h208.507z" />
<glyph unicode="&#xe954;" d="M950.857 448c0-242.374-196.483-438.857-438.857-438.857s-438.857 196.483-438.857 438.857c0 242.374 196.483 438.857 438.857 438.857s438.857-196.483 438.857-438.857z" />
<glyph unicode="&#xe955;" d="M548.733 265.304v152.73h147.897c19.219 0 34.799 15.58 34.799 34.799s-15.58 34.799-34.799 34.799h-147.897v143.064c0 20.287-16.446 36.733-36.733 36.733s-36.733-16.446-36.733-36.733v-143.064h-147.897c-19.219 0-34.799-15.58-34.799-34.799s15.58-34.799 34.799-34.799h147.897v-152.73c0-20.287 16.446-36.733 36.733-36.733s36.733 16.446 36.733 36.733z" />
<glyph unicode="&#xe956;" horiz-adv-x="1049" d="M993.882 448c0-249.503-202.262-451.765-451.765-451.765s-451.765 202.262-451.765 451.765c0 249.503 202.262 451.765 451.765 451.765s451.765-202.262 451.765-451.765z" />
<glyph unicode="&#xe957;" horiz-adv-x="1049" d="M993.882 448c0-249.503-202.262-451.765-451.765-451.765s-451.765 202.262-451.765 451.765c0 249.503 202.262 451.765 451.765 451.765s451.765-202.262 451.765-451.765z" />
<glyph unicode="&#xe958;" horiz-adv-x="1049" d="M331.294 646.768c0-6.658 5.398-12.056 12.056-12.056h239.94c8.317 0 15.059-6.742 15.059-15.059v-117.083c0-8.317 6.742-15.059 15.059-15.059h166.688c4.54 0 8.838-2.049 11.698-5.575l23.346-28.797c2.175-2.682 3.361-6.030 3.361-9.483v-82.5c0-8.317-6.742-15.059-15.059-15.059h-33.031c-5.865 31.987-34.668 55.299-68.325 55.299s-62.46-23.312-68.325-55.299h-123.597c-5.865 31.987-34.668 55.299-68.325 55.299s-62.46-23.312-68.325-55.299h-30.163c-6.658 0-12.056-5.398-12.056-12.056s5.398-12.056 12.056-12.056h29.976c6.153-31.71 34.837-54.692 68.263-54.692s62.11 22.982 68.263 54.692h123.784c6.153-31.71 34.837-54.692 68.263-54.692s62.11 22.982 68.263 54.692h58.075c8.317 0 15.059 6.742 15.059 15.059v114.655c0 3.437-1.176 6.77-3.332 9.447l-35.515 44.087-56.256 114.375c-2.533 5.15-7.773 8.413-13.513 8.413h-105.325c-3.327 0-6.024 2.697-6.024 6.024v9.66c-0.003 8.316-6.743 15.057-15.059 15.062l-264.922 0.055c-6.657 0.001-12.054-5.394-12.056-12.051 0-0.001 0-0.002 0-0.002zM441.463 291.364c-18.016 0-34.257 10.478-41.146 26.545s-3.067 34.558 9.681 46.845c12.748 12.287 31.912 15.949 48.549 9.278s27.471-22.361 27.446-39.75c-0.035-23.713-19.961-42.918-44.53-42.918zM701.835 291.364c-18.016 0-34.257 10.478-41.146 26.545s-3.067 34.558 9.681 46.845c12.748 12.287 31.912 15.949 48.549 9.278s27.471-22.361 27.446-39.75c-0.034-23.689-19.923-42.885-44.467-42.918h-0.062zM728.253 603.91l45.592-92.347h-150.515v92.347h104.923z" />
<glyph unicode="&#xe959;" horiz-adv-x="1049" d="M240.941 508.235h180.706v-30.118h-180.706v30.118z" />
<glyph unicode="&#xe95a;" horiz-adv-x="1049" d="M271.059 568.471h180.706v-30.118h-180.706v30.118z" />
<glyph unicode="&#xe95b;" horiz-adv-x="1048" d="M963.765 448c0-249.503-202.262-451.765-451.765-451.765s-451.765 202.262-451.765 451.765c0 249.503 202.262 451.765 451.765 451.765s451.765-202.262 451.765-451.765z" />
<glyph unicode="&#xe95c;" horiz-adv-x="1048" d="M948.706 448c0-241.186-195.52-436.706-436.706-436.706s-436.706 195.52-436.706 436.706c0 241.186 195.52 436.706 436.706 436.706s436.706-195.52 436.706-436.706z" />
<glyph unicode="&#xe95d;" horiz-adv-x="1048" d="M512-3.765c-249.976 0-451.765 201.788-451.765 451.765s201.788 451.765 451.765 451.765c249.976 0 451.765-201.788 451.765-451.765s-201.788-451.765-451.765-451.765zM512 869.647c-231.906 0-421.647-189.741-421.647-421.647s189.741-421.647 421.647-421.647 421.647 189.741 421.647 421.647-189.741 421.647-421.647 421.647z" />
<glyph unicode="&#xe95e;" horiz-adv-x="1048" d="M301.176 646.776c0-6.024 6.024-12.047 12.047-12.047h240.941c9.035 0 15.059-6.024 15.059-15.059v-117.459c0-9.035 6.024-15.059 15.059-15.059h165.647c6.024 0 9.035-3.012 12.047-6.024l24.094-30.118c3.012-3.012 3.012-6.024 3.012-9.035v-81.318c0-9.035-6.024-15.059-15.059-15.059h-33.129c-6.024 33.129-36.141 54.212-69.271 54.212s-63.247-24.094-69.271-54.212h-123.482c-6.024 33.129-33.129 57.224-66.259 57.224s-63.247-24.094-69.271-54.212h-30.118c-6.024 0-12.047-6.024-12.047-12.047s6.024-12.047 12.047-12.047h30.118c6.024-33.129 36.141-57.224 69.271-57.224s63.247 24.094 69.271 54.212h120.471c6.024-33.129 36.141-54.212 69.271-54.212s63.247 24.094 69.271 54.212h57.224c9.035 0 15.059 6.024 15.059 15.059v114.447c0 3.012 0 6.024-3.012 9.035l-36.141 45.176-57.224 114.447c0 6.024-6.024 9.035-12.047 9.035h-105.412c-3.012 0-6.024 3.012-6.024 6.024v9.035c0 9.035-6.024 15.059-15.059 15.059h-265.035c-6.024 0-12.047-6.024-12.047-12.047 0 0 0 0 0 0zM412.612 291.388c-18.071 0-33.129 9.035-42.165 27.106-6.024 15.059-3.012 33.129 9.035 48.188 12.047 9.035 33.129 15.059 48.188 6.024 18.071-6.024 27.106-21.082 27.106-39.153 0-24.094-18.071-42.165-42.165-42.165zM671.624 291.388c-18.071 0-33.129 9.035-42.165 27.106-6.024 15.059-3.012 33.129 9.035 48.188 12.047 12.047 33.129 15.059 48.188 9.035 18.071-6.024 27.106-21.082 27.106-39.153 3.012-27.106-18.071-45.176-42.165-45.176v0zM698.729 604.612l45.176-93.365h-150.588v93.365h105.412z" />
<glyph unicode="&#xe95f;" horiz-adv-x="1048" d="M210.824 508.235h180.706v-30.118h-180.706v30.118z" />
<glyph unicode="&#xe960;" horiz-adv-x="1048" d="M240.941 568.471h180.706v-30.118h-180.706v30.118z" />
<glyph unicode="&#xe961;" horiz-adv-x="1049" d="M1024 448c0-282.77-229.23-512-512-512s-512 229.23-512 512c0 282.77 229.23 512 512 512s512-229.23 512-512z" />
<glyph unicode="&#xe962;" horiz-adv-x="1049" d="M1024 448c0-282.77-229.23-512-512-512s-512 229.23-512 512c0 282.77 229.23 512 512 512s512-229.23 512-512z" />
<glyph unicode="&#xe963;" horiz-adv-x="1049" d="M273.067 673.28c0-7.541 6.113-13.653 13.653-13.653v0h273.067c9.426 0 17.067-7.641 17.067-17.067v0-132.779c0-9.426 7.641-17.067 17.067-17.067v0h187.733c5.312-0.036 10.064-2.401 13.293-6.122l0.019-0.022 26.624-34.133c2.296-2.882 3.702-6.563 3.755-10.57v-93.537c0-9.426-7.641-17.067-17.067-17.067v0h-37.547c-7.828 36.15-39.539 62.837-77.483 62.837s-69.655-26.687-77.388-62.315l-0.095-0.522h-139.947c-7.828 36.15-39.539 62.837-77.483 62.837s-69.655-26.687-77.388-62.315l-0.095-0.522h-34.133c-7.541 0-13.653-6.113-13.653-13.653s6.113-13.653 13.653-13.653h34.133c8.131-35.759 39.652-62.049 77.312-62.049s69.181 26.289 77.21 61.517l0.102 0.531h138.923c8.131-35.759 39.652-62.049 77.312-62.049s69.181 26.289 77.21 61.517l0.102 0.531h67.243c9.426 0 17.067 7.641 17.067 17.067v0 129.707c0 0.002 0 0.003 0 0.005 0 4.134-1.414 7.939-3.784 10.956l0.029-0.038-40.277 51.2-63.829 129.707c-2.663 5.994-8.515 10.123-15.345 10.24h-119.14c-3.77 0-6.827 3.056-6.827 6.827v0 10.24c-0.187 9.349-7.717 16.879-17.049 17.066h-300.391c-7.541 0-13.653-6.113-13.653-13.653v0zM397.995 270.507c-0.107-0.001-0.234-0.001-0.361-0.001-20.547 0-38.248 12.184-46.272 29.721l-0.13 0.317c-2.416 5.524-3.822 11.961-3.822 18.726 0 13.564 5.651 25.808 14.727 34.506l0.017 0.016c9.308 8.718 21.86 14.072 35.661 14.072 7.077 0 13.826-1.408 19.981-3.959l-0.346 0.127c18.21-7.249 30.883-24.65 31.061-45.034v-0.022c-0.759-26.931-22.772-48.474-49.816-48.474-0.247 0-0.493 0.002-0.738 0.005h0.037zM692.907 270.507c-0.072 0-0.156-0.001-0.241-0.001-20.486 0-38.124 12.194-46.051 29.72l-0.129 0.318c-2.416 5.524-3.822 11.961-3.822 18.726 0 13.564 5.651 25.808 14.727 34.506l0.017 0.016c9.213 8.725 21.685 14.089 35.41 14.089 7.048 0 13.766-1.415 19.885-3.976l-0.34 0.126c18.21-7.249 30.883-24.65 31.061-45.034v-0.022c-0.571-26.892-22.507-48.474-49.483-48.474-0.244 0-0.487 0.002-0.73 0.005h0.037zM722.944 624.811l51.541-104.789h-170.667v104.789z" />
<glyph unicode="&#xe964;" horiz-adv-x="1049" d="M170.667 516.267h204.8v-34.133h-204.8v34.133z" />
<glyph unicode="&#xe965;" horiz-adv-x="1049" d="M204.8 584.533h204.8v-34.133h-204.8v34.133z" />
<glyph unicode="&#xe966;" glyph-name="view" horiz-adv-x="1621" d="M1594.426 519.366c-346.76 408.066-691.605 440.634-789.31 440.634-385.076 0-701.184-337.181-789.31-440.634-21.074-24.905-21.074-63.221 0-88.127 88.127-103.453 402.318-440.634 789.31-440.634 97.706 0 442.55 32.569 789.31 440.634 21.074 24.905 21.074 63.221 0 88.127zM805.116 67.236c-63.221 0-394.655 19.158-726.089 408.066 331.434 386.992 662.868 408.066 726.089 408.066s394.655-19.158 726.089-408.066c-331.434-386.992-662.868-408.066-726.089-408.066zM805.116 800.988c-174.338 0-316.107-145.601-316.107-325.686s141.769-325.686 316.107-325.686c174.338 0 316.107 145.601 316.107 325.686s-141.769 325.686-316.107 325.686zM805.116 226.248c-132.19 0-239.475 111.117-239.475 249.054s107.285 249.054 239.475 249.054c132.19 0 239.475-111.117 239.475-249.054s-107.285-249.054-239.475-249.054z" />
<glyph unicode="&#xe967;" d="M963.765 448c0-249.503-202.262-451.765-451.765-451.765s-451.765 202.262-451.765 451.765c0 249.503 202.262 451.765 451.765 451.765s451.765-202.262 451.765-451.765z" />
<glyph unicode="&#xe968;" d="M662.588 246.212l-9.035 412.612-292.141-9.035 15.059-409.6 108.424 99.388c6.024 6.024 18.071 9.035 27.106 9.035s18.071-3.012 27.106-9.035l123.482-93.365z" />
<glyph unicode="&#xe969;" d="M361.412 207.059l-15.059 457.788 322.259 9.035 9.035-457.788-150.588 108.424c-12.047 9.035-24.094 9.035-33.129 0l-132.518-117.459zM376.471 634.729l15.059-364.424 84.329 75.294c21.082 18.071 51.2 18.071 72.282 0l99.388-72.282-9.035 370.447-262.024-9.035z" />
<glyph unicode="&#xe96a;" d="M963.765 448c0-249.503-202.262-451.765-451.765-451.765s-451.765 202.262-451.765 451.765c0 249.503 202.262 451.765 451.765 451.765s451.765-202.262 451.765-451.765z" />
<glyph unicode="&#xe96b;" d="M361.412 207.059l-15.059 457.788 322.259 9.035 9.035-457.788-150.588 108.424c-12.047 9.035-24.094 9.035-33.129 0l-132.518-117.459zM376.471 634.729l15.059-364.424 84.329 75.294c21.082 18.071 51.2 18.071 72.282 0l99.388-72.282-9.035 370.447-262.024-9.035z" />
<glyph unicode="&#xe96c;" d="M963.765 448c0-249.503-202.262-451.765-451.765-451.765s-451.765 202.262-451.765 451.765c0 249.503 202.262 451.765 451.765 451.765s451.765-202.262 451.765-451.765z" />
<glyph unicode="&#xe96d;" d="M361.412 207.059l-15.059 457.788 322.259 9.035 9.035-457.788-150.588 108.424c-12.047 9.035-24.094 9.035-33.129 0l-132.518-117.459zM376.471 634.729l15.059-364.424 84.329 75.294c21.082 18.071 51.2 18.071 72.282 0l99.388-72.282-9.035 370.447-262.024-9.035z" />
<glyph unicode="&#xe96e;" glyph-name="home" horiz-adv-x="975" d="M811.886 64h-226.304c-26.222 0-47.543 21.321-47.543 47.543v199.351c0 6.034-4.937 10.971-10.971 10.971h-103.351c-6.071 0-10.971-4.937-10.971-10.971v-199.351c0-26.222-21.321-47.543-47.543-47.543h-226.231c-26.222 0-47.543 21.321-47.543 47.543v455.973c0 15.104 7.278 29.44 19.456 38.327l336.457 246.528c16.75 12.288 39.387 12.325 56.174 0.037l336.494-246.565c12.142-8.887 19.419-23.223 19.419-38.327v-455.973c0-26.222-21.321-47.543-47.543-47.543zM423.753 358.437h103.351c26.222 0 47.543-21.321 47.543-47.543v-199.351c0-6.034 4.937-10.971 10.971-10.971h226.267c6.034 0 10.971 4.937 10.971 10.971v455.973c0 3.474-1.682 6.802-4.462 8.814l-336.494 246.528c-3.84 2.816-9.106 2.853-12.983 0l-336.457-246.528c-2.779-2.048-4.462-5.339-4.462-8.814v-455.973c0-6.034 4.901-10.971 10.971-10.971h226.304c6.071 0 10.971 4.937 10.971 10.971v199.351c-0.037 26.222 21.285 47.543 47.506 47.543z" />
<glyph unicode="&#xe96f;" glyph-name="preferiti-nav" d="M259.16 68.52l-2.277 735.425 517.582-0.918-7.396-735.082-236.504 181.181c-18.907 15.087-38.249 15.663-53.192 1.592l-218.223-182.197zM303.781 754.132l6.722-585.569 138.922 116.771c34.714 27.993 83.023 26.549 115.999-3.477l156.042-120.739 3.243 594.898-420.923-1.887z" />
<glyph unicode="&#xe970;" glyph-name="delete" d="M289.129 604.612h36.141v-493.929h-36.141v493.929zM409.6 604.612h36.141v-493.929h-36.141v493.929zM518.024 604.612h36.141v-493.929h-36.141v493.929zM771.012 833.506h-192.753c0 0 0 0 0 0v78.306c0 18.071-12.047 30.118-30.118 30.118h-246.965c-18.071 0-30.118-12.047-30.118-30.118v-78.306c0 0 0 0 0 0h-222.871c-18.071 0-30.118-12.047-30.118-30.118v-78.306c0-18.071 12.047-30.118 30.118-30.118h66.259v-680.659c0-24.094 18.071-42.165 42.165-42.165h518.024c24.094 0 42.165 18.071 42.165 42.165v680.659h48.188c18.071 0 30.118 12.047 30.118 30.118v78.306c6.024 18.071-6.024 30.118-24.094 30.118zM692.706 8.282c0-6.024-6.024-12.047-12.047-12.047h-524.047c-6.024 0-12.047 6.024-12.047 12.047v686.682h548.141v-686.682zM771.012 725.082h-722.824v78.306h512v30.118h-259.012v78.306h246.965v-108.424h222.871c0 0 0 0 0 0v-78.306z" />
<glyph unicode="&#xe971;" glyph-name="edit-solo" d="M851.123 663.838l-169.419 127.366c-4.441 3.34-10.048 4.82-15.609 4.033-5.513-0.788-10.523-3.701-13.891-8.16l-411.028-544.41c-2.173-2.866-3.558-6.3-4.033-9.859l-26.084-201.301c-0.93-7.278 2.031-14.556 7.828-19.091s13.578-5.75 20.476-3.15l195.504 73.935c3.701 1.385 6.946 3.843 9.356 6.993l411.076 544.457c6.898 9.166 5.057 22.241-4.175 29.187zM274.206 191.665l110.163-82.836-127.129-48.088 16.966 130.924zM423.243 132.048l-135.887 102.145 304.329 403.105 135.887-102.145-304.329-403.105zM752.821 568.591l-135.887 102.145 56.249 74.457 135.887-102.145-56.249-74.457z" />
<glyph unicode="&#xe972;" d="M0 448c0-282.77 229.23-512 512-512s512 229.23 512 512c0 282.77-229.23 512-512 512s-512-229.23-512-512z" />
<glyph unicode="&#xe973;" d="M451.765 213.082c-6.024 0-12.047 1.506-16.565 6.024-9.035 9.035-9.035 22.588 0 31.624l197.271 197.271-197.271 197.271c-9.035 9.035-9.035 22.588 0 31.624s22.588 9.035 31.624 0l213.835-212.329c4.518-4.518 6.024-10.541 6.024-16.565s-3.012-12.047-6.024-16.565l-212.329-212.329c-4.518-4.518-10.541-6.024-16.565-6.024z" />
<glyph unicode="&#xe974;" glyph-name="info-orange" horiz-adv-x="1048" d="M526.397-64.001c-283.309 0-512.001 228.691-512.001 512.001s228.691 512.001 512.001 512.001 512.001-228.691 512.001-512.001-228.691-512.001-512.001-512.001zM526.397 925.869c-262.829 0-477.869-215.040-477.869-477.869s215.040-477.869 477.869-477.869 477.869 215.040 477.869 477.869-215.040 477.869-477.869 477.869zM430.826 178.349v23.891l40.96 10.24c3.412 3.412 6.829 6.829 10.24 13.651 0 6.829 3.412 17.069 3.412 37.548v167.251c0 44.371-3.412 71.68-6.829 75.092l-47.789 6.829v20.48c37.548 17.069 75.092 27.309 112.64 30.72l23.891-3.412c-3.412-40.96-3.412-75.092-3.412-102.4v-197.971c0-30.72 3.412-44.371 6.829-47.789l51.2-10.24c0-6.829 0-13.651 0-23.891h-191.149zM468.374 659.629c0 17.069 6.829 30.72 17.069 40.96s23.891 17.069 40.96 17.069c13.651 0 27.309-6.829 40.96-17.069 10.24-10.24 17.069-23.891 17.069-40.96s-6.829-30.72-17.069-40.96c-10.24-10.24-23.891-17.069-40.96-17.069-13.651 0-27.309 6.829-40.96 17.069-10.24 10.24-17.069 23.891-17.069 40.96v0 0 0z" />
<glyph unicode="&#xe975;" horiz-adv-x="1048" d="M1038.404 444.588c0-282.769-229.232-512.001-512.001-512.001s-512.001 229.232-512.001 512.001c0 282.769 229.232 512.001 512.001 512.001s512.001-229.232 512.001-512.001z" />
<glyph unicode="&#xe976;" horiz-adv-x="1048" d="M430.826 178.349v23.891l40.96 10.24c3.412 3.412 6.829 6.829 10.24 13.651 0 6.829 3.412 17.069 3.412 37.548v167.251c0 44.371-3.412 71.68-6.829 75.092l-47.789 6.829v20.48c37.548 17.069 75.092 27.309 112.64 30.72l23.891-3.412c-3.412-40.96-3.412-75.092-3.412-102.4v-197.971c0-30.72 3.412-44.371 6.829-47.789l51.2-10.24c0-6.829 0-13.651 0-23.891h-191.149zM468.374 659.629c0 17.069 6.829 30.72 17.069 40.96s23.891 17.069 40.96 17.069c13.651 0 27.309-6.829 40.96-17.069 10.24-10.24 17.069-23.891 17.069-40.96s-6.829-30.72-17.069-40.96c-10.24-10.24-23.891-17.069-40.96-17.069-13.651 0-27.309 6.829-40.96 17.069-10.24 10.24-17.069 23.891-17.069 40.96v0 0 0z" />
<glyph unicode="&#xe977;" glyph-name="icon-chat" d="M921.6 960h-614.4c-56.32 0-102.4-46.080-102.4-102.4v-102.4h-102.4c-56.32 0-102.4-46.080-102.4-102.4v-683.395c0-7.638 6.199-13.838 13.838-13.838 3.681 0 7.196 1.467 9.797 4.068l181.165 181.165h512c56.32 0 102.4 46.080 102.4 102.4v102.4l181.165-181.165c5.424-5.424 14.17-5.424 19.594 0 2.574 2.574 4.041 6.089 4.041 9.77v683.395c0 56.32-46.080 102.4-102.4 102.4zM307.2 396.8c-28.229 0-51.2 22.971-51.2 51.2v409.6c0 28.229 22.971 51.2 51.2 51.2h614.4c28.229 0 51.2-22.971 51.2-51.2v-593.2l-128.36 128.36c-2.574 2.574-6.089 4.041-9.77 4.041h-527.471zM768 243.2c0-28.229-22.971-51.2-51.2-51.2h-527.471c-3.653 0-7.196-1.467-9.77-4.041l-128.36-128.36v593.2c0 28.229 22.971 51.2 51.2 51.2h102.4v-256c0-56.32 46.080-102.4 102.4-102.4h460.8v-102.4z" />
<glyph unicode="&#xe978;" glyph-name="icon-direct-contact" horiz-adv-x="1107" d="M551.798 959.972l0.554-0.028 1.162 0.055c212.272 0 391.998-141.367 450.366-334.876 6.476 1.633 13.146 2.768 20.12 2.768 45.665 0 83.027-37.362 83.027-83.027v-110.703c0-45.665-37.362-83.027-83.027-83.027-6.974 0-13.644 1.135-20.12 2.768-45.416-150.528-164.227-269.34-314.755-314.755 1.633-6.476 2.768-13.146 2.768-20.12 0-45.665-37.362-83.027-83.027-83.027h-111.090c-45.665 0-83.027 37.362-83.027 83.027 0 6.808 1.079 13.34 2.629 19.677 2.269 9.216 5.95 17.878 11.043 25.628 5.895 8.967 13.45 16.744 22.279 22.86 32.242-8.054 65.785-12.814 100.518-12.814 35.84 0 70.462 5.037 103.645 13.644 147.124 37.999 262.587 154.541 299.008 302.274 7.86 31.855 12.482 64.955 12.482 99.217s-4.622 67.363-12.482 99.217c-44.558 180.722-207.346 315.337-401.491 315.862l-1.162 0.055c-192.899 0-355.024-132.428-401.38-311.019-5.148-19.788-9.299-39.964-11.458-60.748-1.494-14.253-2.297-28.727-2.297-43.368s0.803-29.115 2.269-43.34c2.186-20.812 6.31-40.96 11.458-60.748-6.282-8.552-14.087-15.83-23.082-21.476-7.832-4.926-16.439-8.635-25.711-10.71-5.812-1.301-11.79-2.103-17.989-2.103-45.665 0-83.027 37.362-83.027 83.027v110.703c0 45.665 37.362 83.027 83.027 83.027 6.199 0 12.177-0.803 17.989-2.103 58.589 193.149 238.149 334.211 450.2 334.211l1.135-0.055zM316.388 461.81c7.196-123.461 109.54-221.378 234.828-221.378s227.66 97.917 234.828 221.378h55.434c-7.251-154.098-134.421-276.729-290.262-276.729-155.814 0-283.011 122.659-290.262 276.701h55.434z" />
<glyph unicode="&#xe979;" glyph-name="icon-email" horiz-adv-x="1403" d="M1262.933 960h-1122.607c-77.179 0-140.326-57.609-140.326-128v-768c0-70.391 63.147-128 140.326-128h1122.607c77.179 0 140.326 57.609 140.326 128v768c0 70.391-63.147 128-140.326 128zM140.326 895.981h1122.607c24.576 0 46.194-11.643 58.709-29.165l-620.013-565.551-620.013 565.551c12.516 17.522 34.133 29.203 58.709 29.203zM1262.933-0.019h-1122.607c-38.684 0-70.163 28.71-70.163 64.019v722.754l631.467-576.019 631.467 576.019v-722.754c0-35.271-31.479-64.019-70.163-64.019z" />
<glyph unicode="&#xe97a;" glyph-name="three-dots" d="M126.758 574.71c-70.056 0-126.758-56.671-126.758-126.694s56.639-126.726 126.758-126.726c69.928 0 126.694 56.607 126.694 126.726 0 70.024-56.766 126.694-126.694 126.694zM518.565 574.71c-69.896 0-126.758-56.639-126.758-126.662s56.798-126.726 126.758-126.726 126.822 56.607 126.822 126.726c-0.064 69.992-56.862 126.662-126.822 126.662zM897.338 574.71c-70.024 0-126.79-56.671-126.79-126.726 0-69.96 56.671-126.662 126.79-126.662 69.896 0 126.662 56.607 126.662 126.662s-56.766 126.726-126.662 126.726z" />
<glyph unicode="&#xe97b;" glyph-name="squares1" horiz-adv-x="1089" d="M802.202 154.632h-791.561v789.967h791.561v-789.967zM71.917 215.908h669.009v667.416h-669.009v-667.416zM1076.861-56.524h-821.729v272.432h485.815v538.185h335.914v-810.617zM316.408 4.751h699.177v688.066h-213.383v-538.185h-485.794v-149.881z" />
<glyph unicode="&#xe97c;" glyph-name="squares" d="M98.945 487.289h274.45c54.092 0 98.101 44.009 98.101 98.101v274.45c0 54.094-44.009 98.101-98.101 98.101h-274.45c-54.092 0-98.101-44.007-98.101-98.101v-274.45c0-54.092 44.009-98.101 98.101-98.101zM73.129 859.84c0 14.258 11.558 25.816 25.816 25.816h274.45c14.258 0 25.816-11.558 25.816-25.816v-274.45c0-14.258-11.558-25.816-25.816-25.816h-274.45c-14.258 0-25.816 11.558-25.816 25.816v274.45zM373.395 486.445h-274.45c-54.558 0-98.945 44.387-98.945 98.945v274.45c0 54.56 44.387 98.945 98.945 98.945h274.45c54.558 0 98.945-44.387 98.945-98.945v-274.45c0-54.558-44.387-98.945-98.945-98.945zM98.945 957.098c-53.628 0-97.258-43.629-97.258-97.258v-274.45c0-53.628 43.629-97.258 97.258-97.258h274.45c53.628 0 97.258 43.629 97.258 97.258v274.45c0 53.628-43.629 97.258-97.258 97.258h-274.45zM373.395 558.732h-274.45c-14.7 0-26.66 11.96-26.66 26.66v274.449c0 14.7 11.96 26.66 26.66 26.66h274.45c14.7 0 26.66-11.96 26.66-26.66v-274.45c0-14.7-11.96-26.658-26.66-26.658zM98.945 884.813c-13.77 0-24.972-11.202-24.972-24.972v-274.45c0-13.77 11.202-24.972 24.972-24.972h274.45c13.77 0 24.972 11.202 24.972 24.972v274.45c0 13.77-11.202 24.972-24.972 24.972h-274.45zM925.057 957.941h-274.45c-54.094 0-98.103-44.009-98.103-98.101v-274.45c0-54.092 44.009-98.101 98.103-98.101h274.45c54.094 0 98.1 44.009 98.1 98.101v274.45c0 54.094-44.005 98.101-98.1 98.101zM950.871 585.39c0-14.258-11.558-25.816-25.814-25.816h-274.45c-14.256 0-25.818 11.558-25.818 25.816v274.45c0 14.258 11.562 25.816 25.818 25.816h274.45c14.256 0 25.814-11.558 25.814-25.816v-274.45zM925.057 486.445h-274.45c-54.56 0-98.947 44.387-98.947 98.945v274.45c0 54.558 44.387 98.945 98.947 98.945h274.45c54.556 0 98.943-44.387 98.943-98.945v-274.45c0-54.558-44.387-98.945-98.943-98.945zM650.606 957.098c-53.628 0-97.259-43.629-97.259-97.258v-274.45c0-53.628 43.629-97.258 97.259-97.258h274.45c53.627 0 97.256 43.629 97.256 97.258v274.45c0 53.628-43.628 97.258-97.256 97.258h-274.45zM925.057 558.732h-274.45c-14.702 0-26.661 11.96-26.661 26.66v274.449c0 14.7 11.96 26.66 26.661 26.66h274.45c14.7 0 26.658-11.96 26.658-26.66v-274.45c0-14.7-11.958-26.658-26.658-26.658zM650.606 884.813c-13.77 0-24.974-11.202-24.974-24.972v-274.45c0-13.77 11.204-24.972 24.974-24.972h274.45c13.769 0 24.971 11.202 24.971 24.972v274.45c0 13.77-11.202 24.972-24.971 24.972h-274.45zM98.945-61.941h274.45c54.092 0 98.101 44.005 98.101 98.1v274.45c0 54.094-44.009 98.103-98.101 98.103h-274.45c-54.092 0-98.101-44.009-98.101-98.103v-274.45c0-54.094 44.009-98.1 98.101-98.1zM73.129 310.609c0 14.256 11.558 25.818 25.816 25.818h274.45c14.258 0 25.816-11.562 25.816-25.818v-274.45c0-14.256-11.558-25.814-25.816-25.814h-274.45c-14.258 0-25.816 11.558-25.816 25.814v274.45zM373.395-62.785h-274.45c-54.558 0-98.945 44.385-98.945 98.941v274.452c0 54.56 44.387 98.947 98.945 98.947h274.45c54.558 0 98.945-44.387 98.945-98.947v-274.45c0-54.558-44.387-98.943-98.945-98.943zM98.945 407.866c-53.628 0-97.258-43.629-97.258-97.258v-274.45c0-53.627 43.629-97.256 97.258-97.256h274.45c53.628 0 97.258 43.628 97.258 97.256v274.45c0 53.628-43.629 97.259-97.258 97.259h-274.45zM373.395 9.5h-274.45c-14.7 0-26.66 11.958-26.66 26.658v274.45c0 14.702 11.96 26.661 26.66 26.661h274.45c14.7 0 26.66-11.96 26.66-26.661v-274.45c0-14.7-11.96-26.658-26.66-26.658zM98.945 335.583c-13.77 0-24.972-11.204-24.972-24.974v-274.45c0-13.769 11.202-24.971 24.972-24.971h274.45c13.77 0 24.972 11.202 24.972 24.971v274.45c0 13.77-11.202 24.974-24.972 24.974h-274.45zM925.057 408.71h-274.45c-54.094 0-98.103-44.009-98.103-98.103v-274.45c0-54.094 44.009-98.1 98.103-98.1h274.45c54.094 0 98.1 44.005 98.1 98.1v274.452c0 54.092-44.005 98.101-98.1 98.101zM950.871 36.156c0-14.256-11.558-25.814-25.814-25.814h-274.45c-14.256 0-25.818 11.558-25.818 25.814v274.452c0 14.256 11.562 25.818 25.818 25.818h274.45c14.256 0 25.814-11.562 25.814-25.818v-274.452zM925.057-62.785h-274.45c-54.56 0-98.947 44.387-98.947 98.943v274.45c0 54.56 44.387 98.947 98.947 98.947h274.45c54.556 0 98.943-44.387 98.943-98.947v-274.45c0-54.558-44.387-98.943-98.943-98.943zM650.606 407.866c-53.628 0-97.259-43.629-97.259-97.259v-274.45c0-53.627 43.629-97.256 97.259-97.256h274.45c53.627 0 97.256 43.628 97.256 97.256v274.452c0 53.628-43.628 97.259-97.256 97.259h-274.45zM925.057 9.5h-274.45c-14.702 0-26.661 11.958-26.661 26.658v274.45c0 14.702 11.96 26.661 26.661 26.661h274.45c14.7 0 26.658-11.96 26.658-26.661v-274.45c0-14.7-11.958-26.658-26.658-26.658zM650.606 335.583c-13.77 0-24.974-11.204-24.974-24.974v-274.45c0-13.769 11.204-24.971 24.974-24.971h274.45c13.769 0 24.971 11.202 24.971 24.971v274.45c0 13.77-11.202 24.974-24.971 24.974h-274.45z" />
<glyph unicode="&#xe97d;" glyph-name="icon-facebook-black" d="M501.541 960c277.016 0 501.565-224.549 501.565-501.541 0-277.016-224.549-501.565-501.565-501.565-276.968 0-501.541 224.549-501.541 501.589 0 276.943 224.549 501.516 501.541 501.516zM621.885 725.943h-75.337c-90.478 0-122.344-45.617-122.344-122.319v-56.466h-56.393v-94.037h56.393v-272.823h112.884v272.823h75.337l9.996 94.013h-85.333l0.146 47.055c0 24.552 2.341 37.693 37.547 37.693h47.104v94.062z" />
<glyph unicode="&#xe97e;" glyph-name="icon-instagram-black" d="M505.027 939.106c277.016 0 501.565-224.549 501.565-501.541 0-277.016-224.549-501.565-501.565-501.565-276.968 0-501.541 224.549-501.541 501.589 0 276.943 224.549 501.516 501.541 501.516zM531.627 705.048h-53.199c-48.884-0.098-59.051-0.488-83.627-1.609-28.477-1.317-47.933-5.827-64.926-12.434-17.603-6.827-32.524-15.97-47.397-30.842s-24.015-29.794-30.866-47.372c-6.632-17.018-11.142-36.474-12.434-64.926-1.268-28.526-1.609-37.669-1.609-110.324s0.317-81.725 1.609-110.251c1.317-28.477 5.827-47.933 12.434-64.926 6.827-17.603 15.97-32.524 30.842-47.397s29.794-24.040 47.372-30.866c17.018-6.607 36.474-11.118 64.951-12.434 27.55-1.243 36.986-1.585 102.985-1.609h7.314c72.631 0 81.725 0.317 110.251 1.609 28.477 1.317 47.933 5.827 64.951 12.434 17.603 6.827 32.5 15.994 47.372 30.866s24.015 29.794 30.866 47.397c6.583 16.994 11.093 36.45 12.434 64.902 1.097 24.625 1.487 34.767 1.585 83.627v53.321c-0.098 48.859-0.488 59.051-1.585 83.627-1.341 28.477-5.851 47.933-12.434 64.926-6.851 17.603-15.994 32.524-30.866 47.397s-29.769 24.015-47.372 30.842c-17.067 6.607-36.498 11.118-64.975 12.434-24.625 1.122-34.743 1.512-83.627 1.585zM481.061 656.92v-0.073h51.005c47.25-0.098 56.905-0.439 81.091-1.536 26.088-1.219 40.229-5.559 49.664-9.216 12.483-4.852 21.382-10.654 30.72-19.992 9.387-9.387 15.165-18.286 20.041-30.769 3.657-9.435 8.021-23.576 9.216-49.664 1.146-25.186 1.463-34.621 1.536-87.186v-41.74c-0.049-52.565-0.39-62.001-1.536-87.186-1.219-26.088-5.559-40.229-9.216-49.664-4.876-12.483-10.654-21.358-20.017-30.72s-18.261-15.165-30.744-19.992c-9.411-3.682-23.576-8.046-49.664-9.24-25.186-1.146-34.621-1.463-87.211-1.536h-41.765c-52.59 0.049-62.025 0.39-87.211 1.536-26.088 1.219-40.229 5.559-49.664 9.24-12.483 4.827-21.406 10.63-30.769 19.992s-15.165 18.261-20.017 30.744c-3.657 9.435-8.046 23.576-9.216 49.664-1.097 24.162-1.463 33.841-1.512 81.091v54.004c0.073 47.25 0.414 56.881 1.512 81.067 1.219 26.088 5.559 40.229 9.216 49.664 4.852 12.483 10.654 21.406 20.017 30.769s18.286 15.141 30.769 19.992c9.435 3.682 23.576 8.046 49.664 9.24 24.674 1.122 34.231 1.463 84.114 1.512zM505.051 574.927c-75.849 0-137.362-61.513-137.362-137.387 0-75.849 61.513-137.338 137.362-137.338 75.874 0 137.362 61.489 137.362 137.338 0 75.874-61.489 137.387-137.362 137.387zM505.051 526.726c49.25 0 89.186-39.936 89.186-89.186s-39.936-89.161-89.186-89.161-89.161 39.936-89.161 89.161c0 49.25 39.936 89.186 89.161 89.186zM647.851 612.45c-17.725 0-32.11-14.385-32.11-32.11s14.385-32.11 32.11-32.11 32.11 14.385 32.11 32.11-14.385 32.11-32.11 32.11z" />
<glyph unicode="&#xe97f;" glyph-name="icon-twitter-black" d="M508.514 939.106c277.016 0 501.565-224.549 501.565-501.541 0-277.016-224.549-501.565-501.565-501.565-276.968 0-501.541 224.549-501.541 501.589 0 276.943 224.549 501.516 501.541 501.516zM586.996 633.442c-43.861-15.945-71.582-57.027-68.413-102.010l1.048-17.359-17.554 2.146c-63.829 8.143-119.613 35.767-166.985 82.164l-23.162 23.016-5.949-16.994c-12.629-37.912-4.559-77.922 21.748-104.838 14.043-14.872 10.874-16.994-13.336-8.143-8.411 2.828-15.774 4.949-16.482 3.901-2.438-2.487 5.973-34.718 12.629-47.47 9.118-17.701 27.721-35.060 48.055-45.349l17.189-8.143-20.334-0.341c-19.651 0-20.358-0.366-18.237-7.802 6.997-23.016 34.718-47.445 65.585-58.075l21.772-7.436-18.944-11.337c-28.087-16.286-61.050-25.502-94.037-26.21-15.774-0.366-28.77-1.78-28.77-2.828 0-3.56 42.813-23.406 67.706-31.183 74.728-23.016 163.499-13.093 230.156 26.21 47.348 27.989 94.72 83.602 116.809 137.435 11.947 28.672 23.869 81.091 23.869 106.252 0 16.286 1.048 18.408 20.699 37.888 11.581 11.337 22.43 23.747 24.552 27.282 3.511 6.729 3.17 6.729-14.726 0.707-29.818-10.63-34.036-9.216-19.31 6.729 10.874 11.337 23.869 31.866 23.869 37.888 0 1.073-5.266-0.707-11.215-3.901-6.339-3.535-20.358-8.85-30.891-12.020l-18.944-6.022-17.189 11.678c-9.46 6.363-22.796 13.458-29.818 15.604-17.896 4.949-45.251 4.218-61.391-1.438z" />
<glyph unicode="&#xe980;" glyph-name="linkedin-1" horiz-adv-x="878" d="M199.43 602.858v-566.286h-188.57v566.286h188.57zM211.43 777.714c0.57-54.286-40.57-97.714-106.286-97.714v0h-1.144c-63.43 0-104 43.43-104 97.714 0 55.43 42.286 97.714 106.286 97.714 64.57 0 104.57-42.286 105.144-97.714zM877.714 361.144v-324.572h-188v302.858c0 76-27.428 128-95.428 128-52 0-82.856-34.856-96.572-68.572-4.572-12.572-6.286-29.144-6.286-46.286v-316h-188c2.286 513.144 0 566.286 0 566.286h188v-82.286h-1.142c24.572 38.858 69.144 95.43 170.856 95.43 124 0 216.572-81.144 216.572-254.856z" />
<glyph unicode="&#xe981;" d="M685.534 202.204c-43.312-29.084-98.768-46.2-163.878-46.2-126.040 0-232.708 85.166-270.774 199.524l-161.672-125.39c79.624-158.15 243.292-266.63 432.446-266.63 130.644 0 240.172 43.374 320.296 117.302l-156.418 121.394z" />
<glyph unicode="&#xe982;" d="M977.424 535.444h-455.766v-187.16h260.438c-11.232-60.492-45.312-111.736-96.562-146.080l156.418-121.394c91.472 84.228 144.29 208.246 144.29 355.656 0.004 34.288-3.148 67.268-8.818 98.978z" />
<glyph unicode="&#xe983;" d="M37.754 447.444c0-78.052 18.694-151.98 51.458-217.306l161.672 125.39c-9.662 28.986-15.178 60.040-15.178 91.914 0 31.872 5.516 62.904 15.178 91.94l-161.672 125.39c-32.76-65.316-51.458-139.248-51.458-217.326z" />
<glyph unicode="&#xe984;" d="M521.658 738.914c71.044 0 134.844-24.418 184.988-72.408l138.778 138.826c-83.804 78.078-193.338 126.018-323.764 126.018-189.154 0-352.822-108.428-432.446-266.578l161.672-125.39c38.068 114.358 144.738 199.53 270.774 199.53z" />
<glyph unicode="&#xe985;" glyph-name="arrowback" horiz-adv-x="1617" d="M75.453 426.442l404.211-420.379c10.779-10.779 10.779-26.947 0-37.726s-26.947-10.779-37.726 0c0 0 0 0 0 0l-409.6 425.768c-21.558 21.558-21.558 53.895 0 75.453l409.6 425.768c10.779 10.779 26.947 10.779 37.726 0 0 0 0 0 0 0 10.779-10.779 10.779-26.947 0-37.726l-404.211-431.158zM463.495-58.611c-10.779 0-21.558 5.389-26.947 10.779l-409.6 425.768c-26.947 26.947-26.947 64.674 0 91.621l409.6 425.768c5.389 10.779 16.168 10.779 26.947 10.779s21.558 0 26.947-10.779c16.168-16.168 16.168-43.116 0-59.284l-398.821-414.989 398.821-414.989c16.168-16.168 16.168-43.116 0-59.284-5.389 0-16.168-5.389-26.947-5.389 0 0 0 0 0 0zM463.495 879.158c0 0 0 0 0 0-5.389 0-5.389 0-10.779-5.389l-409.6-425.768c-16.168-16.168-16.168-37.726 0-53.895l409.6-425.768c5.389 0 5.389-5.389 10.779-5.389s5.389 0 10.779 5.389 5.389 16.168 0 21.558l-404.211 420.379c-5.389 5.389-5.389 10.779 0 16.168l404.211 420.379c5.389 5.389 5.389 16.168 0 21.558-5.389 10.779-10.779 10.779-10.779 10.779zM1562.947 383.326h-1487.495c-21.558 0-43.116 16.168-43.116 43.116s21.558 37.726 43.116 37.726h1487.495c21.558 0 43.116-16.168 43.116-43.116s-21.558-37.726-43.116-37.726z" />
</font>
</defs>
</svg>
